imdb
rating

7.4
Mr. Brooks

Mr. Brooks (2007)

Crime, Drama, Mystery, Thriller

Full description
quality   dvdrip screener bd x264 hd fullhd

Mr. Brooks 2007 DVDrip English Klam

Size 1.676 GB   0 seeders     Added 2012-05-15 02:56:02

Stream torrent
Starting‥ You need BitLord! Get it from 1BitLord.com
To download or stream you need BitLord. Visit them at BitLord.com
[img] image[/img]\r\n\r\nWith: Kevin Costner, Demi Moore and William Hurt\r\n\r\nHet is Earl Brooks (Kevin Costner) altijd gelukt een gespleten leven te leiden: aan de ene kant is hij de onkreukbare zakenman en perfecte huisvader, maar daarnaast heeft hij het bloeddorstige alter ego Marshall (William Hurt) die hem tot gruwelijke moorden aanzet. Hij komt echter in de problemen wanneer er foto's worden genomen van zijn laatste moordpartij. Naast de opportunistische fotograaf, wordt hij ook op de hielen gezeten door de doortastende rechercheur Tracy Atwood (Demi Moore). Is Mr. Brooks slimmer dan zijn tegenstanders en kan hij voorkomen dat zijn vrouw en dochter achter zijn schokkende dubbelleven komen? Of wordt hij voor eens en voor altijd ontmaskerd?\r\n\r\nA psychological thriller about a man who is sometimes controlled by his murder-and-mayhem-loving alter ego. \r\n\r\nhttp://www.imdb.com/title/tt0780571	\r\n\r\n[COLOR=#3300FF]------------------------ Dutch Friends ------------------------\r\n---------------------------------------------------------------\r\n- Bezoek ook eens mijn vrienden op:  http://www.Film-Test.nl --\r\n----- voor mijn Nederlandse Sync. ondertitels ---- en meer ----\r\n------- http://www.Film-Test.nl ---- voor Films en meer -------\r\n---------------------------------------------------------------[/COLOR]\r\n\r\nGeneral:\r\n\r\nComplete name                    : Mr Brooks\\Mr Brooks.avi\r\nFormat                           : AVI\r\nFormat/Info                      : Audio Video Interleave\r\nFile size                        : 1.56 GiB\r\nDuration                         : 2h 0mn\r\nOverall bit rate                 : 1 852 Kbps\r\n\r\nVideo:\r\n\r\nFormat                           : MPEG-4 Visual\r\nFormat profile                   : Simple@L3\r\nFormat settings, BVOP            : No\r\nFormat settings, QPel            : No\r\nFormat settings, GMC             : No warppoints\r\nFormat settings, Matrix          : Default (H.263)\r\nCodec ID                         : XVID\r\nCodec ID/Hint                    : XviD\r\nDuration                         : 2h 0mn\r\nBit rate                         : 1 394 Kbps\r\nWidth                            : 652 pixels\r\nHeight                           : 352 pixels\r\nDisplay aspect ratio             : 1.852\r\nFrame rate                       : 23.976 fps\r\nColor space                      : YUV\r\nChroma subsampling               : 4:2:0\r\nBit depth                        : 8 bits\r\nScan type                        : Progressive\r\nCompression mode                 : Lossy\r\nBits/(Pixel*Frame)               : 0.253\r\nStream size                      : 1.17 GiB (75%)\r\nWriting library                  : XviD 1.1.2 (UTC 2006-11-01)\r\n\r\nAudio:\r\n\r\nFormat                           : AC-3\r\nFormat/Info                      : Audio Coding 3\r\nMode extension                   : CM (complete main)\r\nCodec ID                         : 2000\r\nDuration                         : 2h 0mn\r\nBit rate mode                    : Constant\r\nBit rate                         : 448 Kbps\r\nChannel(s)                       : 6 channels\r\nChannel positions                : Front: L C R, Side: L R, LFE\r\nSampling rate                    : 48.0 KHz\r\nBit depth                        : 16 bits\r\nCompression mode                 : Lossy\r\nStream size                      : 387 MiB (24%)\r\nAlignment                        : Aligned on interleaves\r\nInterleave, duration             : 32 ms (0.77 video frame)
Cover/Mr. Brooks.jpg 186.201 KB
Cover/www.Film-Test.nl.JPG 36.286 KB
Mr Brooks.avi 1.676 GB
Gathering some info...

Register and log in Isohunt and see no captcha anymore!

4000 symbols left
Hash B6EEC5C80A486833843E736CA9E71BAB5C5B8ADC

Related torrents for "Mr. Brooks 2007 DVDrip English Klam"

Torrent search:

dvdrip english 2007