Womb 2010 720p BRRip x264 (599MB) Exclusive~~~CooL GuY {{a2zRG}}

Size 628.347 MB   6 seeders     Added 2012-05-16 01:33:39

Stream torrent
Starting‚Ä• You need BitLord! Get it from BitLord.com
10
To download or stream you need BitLord. Visit them at BitLord.com
Womb 2010 720p BRRip x264 (599MB) [Exclusive]~~~[CooL GuY] {{a2zRG}}

[URL=http://nimga.com/v/0213R][IMG]image[/IMG][/URL]

[URL=http://nimga.com/v/TYmjb][IMG]image[/IMG][/URL]

[URL=http://nimga.com/v/Gt7MQ][IMG]image[/IMG][/URL]

[url]http://www.imdb.com/title/tt1216520/[/url]


General

Complete name                            : Womb 2010 720p BRRip x264 (599MB) [Exclusive]~~~[CooL GuY] {{a2zRG}}
Format                                   : MPEG-4
Format profile                           : Base Media / Version 2
Codec ID                                 : mp42
File size                                : 599 MiB
Duration                                 : 1h 51mn
Overall bit rate mode                    : Variable
Overall bit rate                         : 749 Kbps
Encoded date                             : UTC 2012-05-14 20:02:18
Tagged date                              : UTC 2012-05-14 21:18:58
Writing application                      : HandBrake 0.9.5 2011010300

Video

ID                                       : 1
Format                                   : AVC
Format/Info                              : Advanced Video Codec
Format profile                           : Main@L3.1
Format settings, CABAC                   : Yes
Format settings, ReFrames                : 4 frames
Codec ID                                 : avc1
Codec ID/Info                            : Advanced Video Coding
Duration                                 : 1h 51mn
Bit rate mode                            : Variable
Bit rate                                 : 585 Kbps
Width                                    : 1 280 pixels
Height                                   : 544 pixels
Display aspect ratio                     : 2.35:1
Frame rate mode                          : Variable
Frame rate                               : 24.000 fps
Minimum frame rate                       : 8.000 fps
Maximum frame rate                       : 24.000 fps
Color space                              : YUV
Chroma subsampling                       : 4:2:0
Bit depth                                : 8 bits
Scan type                                : Progressive
Bits/(Pixel*Frame)                       : 0.035
Stream size                              : 468 MiB (78%)
Writing library                          : x264 core 112


Audio

ID                                       : 2
Format                                   : AAC
Format/Info                              : Advanced Audio Codec
Format profile                           : LC
Codec ID                                 : 40
Duration                                 : 1h 51mn
Bit rate mode                            : Variable
Bit rate                                 : 160 Kbps
Maximum bit rate                         : 301 Kbps
Channel(s)                               : 2 channels
Channel positions                        : Front: L R
Sampling rate                            : 48.0 KHz
Compression mode                         : Lossy
Delay relative to video                  : -167ms
Stream size                              : 128 MiB (21%)


Facebook :-

If You Like My Post Then Please Visit :-

[URL=http://nimga.com/v/j0Clv][IMG]image[/IMG][/URL]


Facebook Page :-  [url]http://www.facebook.com/pages/A2Z-RG/278496908901013[/url]


Facebook Group :-  [url]http://www.facebook.com/groups/403553456329800/[/url]


Screen Shots :-

[URL=http://nimga.com/v/VRGPI][IMG]image[/IMG][/URL]

[URL=http://nimga.com/v/6ei3y][IMG]image[/IMG][/URL]

[URL=http://nimga.com/v/7LqWm][IMG]image[/IMG][/URL]

[URL=http://nimga.com/v/WDzrq][IMG]image[/IMG][/URL]


[URL=http://nimga.com/v/E4T9W][IMG]image[/IMG][/URL]


[URL=http://nimga.com/v/tARlA][IMG]image[/IMG][/URL]
AhaShare.com.txt 59 B
Cover.jpg 11.547 KB
If You Like My Work Then Like Me On Facebook.txt 253 B
Gathering some info...

Register and log in Isohunt and see no captcha anymore!

4000 symbols left
Hash 4744A7F7A56AC16A9917B68B04CB7BC46ABD0618