Fernanda Porto - Fernanda Porto[Eac Flac Cue](TntVillage)

Size 408.168 MB   2 seeders     Added 2012-05-16 02:52:56

Stream torrent
Starting‥ You need BitLord! Get it from 1BitLord.com
10
To download or stream you need BitLord. Visit them at BitLord.com
[img]image[/img]

[img]image[/img]

[img]image[/img]

[img]image[/img]

[b]
Artist: Fernanda Porto 
Title Of Album: Fernanda Porto
Etichetta: Trama  
Pubblicazione: 2002 
Genre: Latin, Drum n Bass
Source: CD
Playing Time: 41.24
Total Size: 260,79 MB
Quality: FLAC+Cue+Log+Info+Cover[Front + Back + CD]
Bitrate: Lossless[/b]

[img]image[/img]

[b]
1. De Costas Pro Mundo 4:18
2. Eletricidade 4:43
3. Baque Virado 4:26
4. Amor Errado 4:06
5. Tudo De Bom 5:06
6. Vilarejo Íntimo 5:19
7. Sambassim 4:14
8. Outro Lugar Do Mundo 4:33
9. Tanta Besteira 3:33
10. O Amor Não Cala 5:00
11. Só Tinha De Ser Com Você 4:16
12. Jeito Novo (Not The Same) 4:26
13. Tempo Pra Tudo 5:38
14. 1999 3:23
[/b]

[img]image[/img]

[b]There's a cliche that has crept into record reviewing in the last few years. 'Joining the dots' has come to mean finding a link between two initially different-sounding genres.

In this connection, Fernanda Porto's eponymous European debut is a fine example of dot-joining- in her case, between the current craze for Brazilian drum & bass, and the more traditional forms of Brazilian song and music. Even if you're unaware of it, you'll have heard Fernanda's voice at Notting Hill Carnival for the last three years over the drum 'n' bass, and the latin sound systems. "Sambassim", as mixed by paulistadrum 'n' bass dj Patife, was the tune, a groundbreaker not just for this artist, but for Brazilian d 'n' b generally.

For a lesser talent, drum 'n' bass would have been a deep hole to dig yourself out of when the craze passes. But Porto's composing, singing, peforming and playing abilities will prove to be the JCB for any such cavity that may appear in the near future. In fact, it wouldn't be immediately apparent from this record thatd 'n' b featured anywhere in the equation,such is the skill with which Porto's classically- trained playing and producing talents combine to give us a record of uncommon grace and beauty, mixing electronically-tinged (but only tinged) sambas and bossa novas with lyrics that are often decidely non-traditional.
[/b]

[img]image[/img]

[quote]Exact Audio Copy V1.0 beta 3 from 29. August 2011

EAC extraction logfile from 13. May 2012, 21:35

Fernanda Porto / Fernanda Porto

Used drive  : HL-DT-STDVDRAM GSA-T40N   Adapter: 0  ID: 0

Read mode               : Secure
Utilize accurate stream : Yes
Defeat audio cache      : Yes
Make use of C2 pointers : No

Read offset correction                      : 667
Overread into Lead-In and Lead-Out          : No
Fill up missing offset samples with silence : Yes
Delete leading and trailing silent blocks   : No
Null samples used in CRC calculations       : Yes
Used interface                              : Native Win32 interface for Win NT & 2000
Gap handling                                : Appended to previous track

Used output format              : User Defined Encoder
Selected bitrate                : 896 kBit/s
Quality                         : High
Add ID3 tag                     : No
Command line compressor         : C:\Program Files\Exact Audio Copy\FLAC\FLAC.EXE
Additional command line options : -8 -V -T "ARTIST=%artist%" -T "TITLE=%title%" -T "ALBUM=%albumtitle%" -T "DATE=%year%" -T "TRACKNUMBER=%tracknr%" -T "GENRE=%genre%" -T "COMMENT=%comment%" -T "BAND=%albuminterpret%" -T "ALBUMARTIST=%albuminterpret%" -T "COMPOSER=%composer%" %haslyrics%--tag-from-file=LYRICS="%lyricsfile%"%haslyrics% -T "DISCNUMBER=%cdnumber%" -T "TOTALDISCS=%totalcds%" -T "TOTALTRACKS=%numtracks%" %hascover%--picture="%coverfile%"%hascover% %source% -o %dest%


TOC of the extracted CD

     Track |   Start  |  Length  | Start sector | End sector 
    ---------------------------------------------------------
        1  |  0:00.00 |  4:18.11 |         0    |    19360   
        2  |  4:18.11 |  4:43.65 |     19361    |    40650   
        3  |  9:02.01 |  4:26.48 |     40651    |    60648   
        4  | 13:28.49 |  4:06.11 |     60649    |    79109   
        5  | 17:34.60 |  5:06.39 |     79110    |   102098   
        6  | 22:41.24 |  5:19.52 |    102099    |   126075   
        7  | 28:01.01 |  4:14.20 |    126076    |   145145   
        8  | 32:15.21 |  4:33.14 |    145146    |   165634   
        9  | 36:48.35 |  3:33.72 |    165635    |   181681   
       10  | 40:22.32 |  5:00.49 |    181682    |   204230   
       11  | 45:23.06 |  4:16.46 |    204231    |   223476   
       12  | 49:39.52 |  4:26.69 |    223477    |   243495   
       13  | 54:06.46 |  5:38.15 |    243496    |   268860   
       14  | 59:44.61 |  3:23.65 |    268861    |   284150   


Track  1

     Filename H:\MY EAC[.FLAC]\Fernanda Porto - Fernanda Porto\(1) De Costas pro Mundo - Fernanda Porto.flac

     Pre-gap length  0:00:02.00

     Peak level 99.3 %
     Extraction speed 2.2 X
     Track quality 100.0 %
     Test CRC DA9D05CD
     Copy CRC DA9D05CD
     Accurately ripped (confidence 4)  [EB21CB91]  (AR v1)
     Copy OK

Track  2

     Filename H:\MY EAC[.FLAC]\Fernanda Porto - Fernanda Porto\(2) Eletricidade - Fernanda Porto.flac

     Peak level 99.9 %
     Extraction speed 2.2 X
     Track quality 99.9 %
     Test CRC B62E9D87
     Copy CRC B62E9D87
     Accurately ripped (confidence 4)  [EB195F6D]  (AR v1)
     Copy OK

Track  3

     Filename H:\MY EAC[.FLAC]\Fernanda Porto - Fernanda Porto\(3) Baque Virado - Fernanda Porto.flac

     Peak level 99.3 %
     Extraction speed 2.6 X
     Track quality 100.0 %
     Test CRC FAB0C58E
     Copy CRC FAB0C58E
     Accurately ripped (confidence 5)  [3717CF62]  (AR v1)
     Copy OK

Track  4

     Filename H:\MY EAC[.FLAC]\Fernanda Porto - Fernanda Porto\(4) Amor Errado - Fernanda Porto.flac

     Peak level 99.4 %
     Extraction speed 2.8 X
     Track quality 100.0 %
     Test CRC 9B46CBE9
     Copy CRC 9B46CBE9
     Accurately ripped (confidence 4)  [7412F6F4]  (AR v1)
     Copy OK

Track  5

     Filename H:\MY EAC[.FLAC]\Fernanda Porto - Fernanda Porto\(5) Tudo de Bom - Fernanda Porto.flac

     Peak level 99.3 %
     Extraction speed 3.0 X
     Track quality 100.0 %
     Test CRC D1FBBDD2
     Copy CRC D1FBBDD2
     Accurately ripped (confidence 4)  [452A9089]  (AR v1)
     Copy OK

Track  6

     Filename H:\MY EAC[.FLAC]\Fernanda Porto - Fernanda Porto\(6) Vilarejo Íntimo - Fernanda Porto.flac

     Peak level 99.3 %
     Extraction speed 2.9 X
     Track quality 99.9 %
     Test CRC FCFEF743
     Copy CRC FCFEF743
     Accurately ripped (confidence 4)  [489F380B]  (AR v1)
     Copy OK

Track  7

     Filename H:\MY EAC[.FLAC]\Fernanda Porto - Fernanda Porto\(7) Sambassim - Fernanda Porto.flac

     Peak level 99.3 %
     Extraction speed 3.0 X
     Track quality 99.9 %
     Test CRC 09ABAADB
     Copy CRC 09ABAADB
     Accurately ripped (confidence 4)  [33B3BA5E]  (AR v1)
     Copy OK

Track  8

     Filename H:\MY EAC[.FLAC]\Fernanda Porto - Fernanda Porto\(8) Outro Lugar do Mundo - Fernanda Porto.flac

     Peak level 99.2 %
     Extraction speed 3.1 X
     Track quality 99.9 %
     Test CRC A45045BA
     Copy CRC A45045BA
     Accurately ripped (confidence 4)  [715464C9]  (AR v1)
     Copy OK

Track  9

     Filename H:\MY EAC[.FLAC]\Fernanda Porto - Fernanda Porto\(9) Tanta Besteira - Fernanda Porto.flac

     Peak level 99.2 %
     Extraction speed 3.5 X
     Track quality 100.0 %
     Test CRC 73CBB041
     Copy CRC 73CBB041
     Accurately ripped (confidence 4)  [BAECCD61]  (AR v1)
     Copy OK

Track 10

     Filename H:\MY EAC[.FLAC]\Fernanda Porto - Fernanda Porto\(10) O Amor Não Cala - Fernanda Porto.flac

     Peak level 99.2 %
     Extraction speed 3.5 X
     Track quality 100.0 %
     Test CRC E062522B
     Copy CRC E062522B
     Accurately ripped (confidence 4)  [6384663F]  (AR v1)
     Copy OK

Track 11

     Filename H:\MY EAC[.FLAC]\Fernanda Porto - Fernanda Porto\(11) Só Tinha de Ser com Você - Fernanda Porto.flac

     Peak level 99.2 %
     Extraction speed 3.4 X
     Track quality 99.9 %
     Test CRC 88EA8823
     Copy CRC 88EA8823
     Accurately ripped (confidence 4)  [1E7C6087]  (AR v1)
     Copy OK

Track 12

     Filename H:\MY EAC[.FLAC]\Fernanda Porto - Fernanda Porto\(12) Jeito Novo (Not the Same) - Fernanda Porto.flac

     Peak level 99.9 %
     Extraction speed 3.5 X
     Track quality 99.9 %
     Test CRC 63C55516
     Copy CRC 63C55516
     Accurately ripped (confidence 4)  [1B8F4D50]  (AR v1)
     Copy OK

Track 13

     Filename H:\MY EAC[.FLAC]\Fernanda Porto - Fernanda Porto\(13) Tempo pra Tudo - Fernanda Porto.flac

     Peak level 99.3 %
     Extraction speed 4.0 X
     Track quality 100.0 %
     Test CRC 03B5E577
     Copy CRC 03B5E577
     Accurately ripped (confidence 4)  [DC5E3085]  (AR v1)
     Copy OK

Track 14

     Filename H:\MY EAC[.FLAC]\Fernanda Porto - Fernanda Porto\(14) 1999 - Fernanda Porto.flac

     Peak level 99.3 %
     Extraction speed 3.5 X
     Track quality 99.9 %
     Test CRC 81BE6E40
     Copy CRC 81BE6E40
     Accurately ripped (confidence 4)  [0015214F]  (AR v1)
     Copy OK


All tracks accurately ripped

No errors occurred

End of status report

==== Log checksum 2ADFB88685010053A639B1AF82853979F3AB7F76AD699A4E62C66226CA112B88 ====[/quote]

[img]image[/img]

[img]image[/img]
(1) De Costas pro Mundo - Fernanda Porto.flac 31.116 MB
(10) O Amor Não Cala - Fernanda Porto.flac 25.14 MB
(11) Só Tinha de Ser com Você - Fernanda Porto.flac 25.877 MB
Gathering some info...

Register and log in Isohunt and see no captcha anymore!

4000 symbols left
Hash C6C23111A9400B6B0D43A7FD7B2DD85B8075DD9A

Related torrents for "Fernanda Porto - Fernanda Porto[Eac Flac Cue](TntVillage)"

Torrent search:

1999 lossless