imdb
rating

8.2
Warrior

Warrior (2011)

Action, Drama

Full description

Warrior 2011 DVDrip English Klam

Size 2.314 GB   0 seeders     Added 2012-05-16 03:06:23

Stream torrent
Starting‥ You need BitLord! Get it from BitLord.com
10
To download or stream you need BitLord. Visit them at BitLord.com
[img] image[/img]\r\n\r\nWith: Tom Hardy, Joel Edgerton and Nick Nolte\r\n\r\nEen gepensioneerde staalarbeider en voormalig bokser heeft door zijn alcoholisme zijn gezin verscheurd achtergelaten. Echter op zekere dag komt hij tot inkeer en versobert op berouwvolle wijze zijn levenswandel. Zijn jongste zoon accepteert vervolgens maar al te graag zijn aanbod om hem te trainen als worstelaar c.q. martial arts-specialist. Zijn broer is echter ook nog niet uit het zicht verdwenen. Hij negeert zijn vader en is met zijn eigen loopbaan als worstelaar bezig. Beide broers bereiden zich nu voor op hetzelfde toernooi.\r\n\r\nThe youngest son of an alcoholic former boxer returns home, where he's trained by his father for competition in a mixed martial arts tournament - a path that puts the fighter on a collision corner with his older brother. \r\n\r\nhttp://www.imdb.com/title/tt1291584	\r\n\r\n[COLOR=#3300FF]------------------------ Dutch Friends ------------------------\r\n---------------------------------------------------------------\r\n- Bezoek ook eens mijn vrienden op:  http://www.Film-Test.nl --\r\n----- voor mijn Nederlandse Sync. ondertitels ---- en meer ----\r\n------- http://www.Film-Test.nl ---- voor Films en meer -------\r\n---------------------------------------------------------------[/COLOR]\r\n\r\nGeneral:\r\n\r\nComplete name                    : Warrior\\Warrior.avi\r\nFormat                           : AVI\r\nFormat/Info                      : Audio Video Interleave\r\nFile size                        : 2.16 GiB\r\nDuration                         : 2h 19mn\r\nOverall bit rate                 : 2 206 Kbps\r\n\r\nVideo:\r\n\r\nFormat                           : MPEG-4 Visual\r\nFormat profile                   : Simple@L3\r\nFormat settings, BVOP            : No\r\nFormat settings, QPel            : No\r\nFormat settings, GMC             : No warppoints\r\nFormat settings, Matrix          : Default (H.263)\r\nCodec ID                         : XVID\r\nCodec ID/Hint                    : XviD\r\nDuration                         : 2h 19mn\r\nBit rate                         : 1 747 Kbps\r\nWidth                            : 720 pixels\r\nHeight                           : 304 pixels\r\nDisplay aspect ratio             : 2.35:1\r\nFrame rate                       : 23.976 fps\r\nColor space                      : YUV\r\nChroma subsampling               : 4:2:0\r\nBit depth                        : 8 bits\r\nScan type                        : Progressive\r\nCompression mode                 : Lossy\r\nBits/(Pixel*Frame)               : 0.333\r\nStream size                      : 1.71 GiB (79%)\r\nWriting library                  : XviD 1.1.2 (UTC 2006-11-01)\r\n\r\nAudio:\r\n\r\nFormat                           : AC-3\r\nFormat/Info                      : Audio Coding 3\r\nMode extension                   : CM (complete main)\r\nCodec ID                         : 2000\r\nDuration                         : 2h 19mn\r\nBit rate mode                    : Constant\r\nBit rate                         : 448 Kbps\r\nChannel(s)                       : 6 channels\r\nChannel positions                : Front: L C R, Side: L R, LFE\r\nSampling rate                    : 48.0 KHz\r\nBit depth                        : 16 bits\r\nCompression mode                 : Lossy\r\nStream size                      : 448 MiB (20%)\r\nAlignment                        : Aligned on interleaves\r\nInterleave, duration             : 32 ms (0.77 video frame)
Cover/Warrior.jpg 53.007 KB
Cover/www.Film-Test.nl.JPG 36.286 KB
New Dutch Site.txt 117 B
Gathering some info...

Register and log in Isohunt and see no captcha anymore!

4000 symbols left
Hash B0A7E4D6337D0B8F3E4891E198F4F23EACE94AB9

Related torrents for "Warrior 2011 DVDrip English Klam"

Torrent search:

dvdrip english 2011