Red

Red (2001)

Drama

Full description

Red Dog 2011 720p BrRip[TeJaS XpEnDaBlE] a2zRG

Size 1.211 GB   0 seeders     Added 2012-05-20 02:55:24

Stream torrent
Starting‥ You need BitLord! Get it from BitLord.com
To download or stream you need BitLord. Visit them at BitLord.com
[COLOR=#DD0000][SIZE=16][I][B]Red Dog 2011 720p BrRip~~~[TeJaS_XpEnDaBlE] {{a2zRG[/SIZE]}[/COLOR]

[URL=http://nimga.com/v/0213R][IMG]image[/IMG][/URL]

[IMG]image[/IMG]

[URL=http://nimga.com/v/Gt7MQ][IMG]image[/IMG][/URL]

[url]http://www.imdb.com/title/tt1384927/[/url]


General

Complete name                            : Red Dog 2011 720p BrRip~~~[TeJaS_XpEnDaBlE] {{a2zRG}}
Format                                   : MPEG-4
Format profile                           : Base Media / Version 2
Codec ID                                 : mp42
File size                                : 1.13 GiB
Duration                                 : 1h 32mn
Overall bit rate mode                    : Variable
Overall bit rate                         : 1 748 Kbps
Encoded date                             : UTC 2012-05-18 17:44:41
Tagged date                              : UTC 2012-05-18 19:21:11
Writing application                      : HandBrake 0.9.5 2011010300

Video

ID                                       : 1
Format                                   : AVC
Format/Info                              : Advanced Video Codec
Format profile                           : Main@L3.1
Format settings, CABAC                   : Yes
Format settings, ReFrames                : 4 frames
Codec ID                                 : avc1
Codec ID/Info                            : Advanced Video Coding
Duration                                 : 1h 32mn
Bit rate mode                            : Variable
Bit rate                                 : 1 583 Kbps
Width                                    : 1 280 pixels
Height                                   : 544 pixels
Display aspect ratio                     : 2.35:1
Frame rate mode                          : Variable
Frame rate                               : 23.976 fps
Minimum frame rate                       : 7.992 fps
Maximum frame rate                       : 23.981 fps
Color space                              : YUV
Chroma subsampling                       : 4:2:0
Bit depth                                : 8 bits
Scan type                                : Progressive
Bits/(Pixel*Frame)                       : 0.095
Stream size                              : 1.02 GiB (91%)
Writing library                          : x264 core 112


Audio

ID                                       : 2
Format                                   : AAC
Format/Info                              : Advanced Audio Codec
Format profile                           : LC
Codec ID                                 : 40
Duration                                 : 1h 32mn
Bit rate mode                            : Variable
Bit rate                                 : 160 Kbps
Maximum bit rate                         : 294 Kbps
Channel(s)                               : 2 channels
Channel positions                        : Front: L R
Sampling rate                            : 48.0 KHz
Compression mode                         : Lossy
Stream size                              : 106 MiB (9%)



Facebook :-

If You Like My Post Then Please Visit :-

[URL=http://nimga.com/v/j0Clv][IMG]image[/IMG][/URL]


Facebook Page :-  [url]http://www.facebook.com/pages/A2Z-RG/278496908901013[/url]


Facebook Group :-  [url]http://www.facebook.com/groups/403553456329800/[/url]


Screen Shots :-

[IMG]image[/IMG]

[IMG]image[/IMG]

[IMG]image[/IMG]

[IMG]image[/IMG]


[URL=http://nimga.com/v/E4T9W][IMG]image[/IMG][/URL]


[URL=http://nimga.com/v/tARlA][IMG]image[/IMG][/URL]
AhaShare.com.txt 59 B
If You Like My Work Then Like Me On Facebook.txt 253 B
Please Don't Forget To Say Thanks To.txt 27 B
Gathering some info...

Register and log in Isohunt and see no captcha anymore!

4000 symbols left
Hash 3EE122E372264C615BD86BD2B3AE9FEBBD916759

Related torrents for "Red Dog 2011 720p BrRip[TeJaS XpEnDaBlE] a2zRG"

Torrent search:

hd bd 2011