Various Artist - Jazz and Beatles

Size 239.361 MB   14 seeders     Added 2012-05-23 01:38:01

Stream torrent
Starting‥ You need BitLord! Get it from BitLord.com
10
To download or stream you need BitLord. Visit them at BitLord.com
[img]image[/img]

[img]image[/img]

[img]image[/img]

[img]image[/img]

[b]Artist: Various Artist 
Title Of Album: Jazz and Beatles
Etichetta: MUSIC BROKERS BRASIL 
Pubblicazione: 2010 
Genre: Jazz/Cool Jazz
Source: CD
Playing Time: 37.31
Total Size: 227,99 MB
Quality: FLAC+Cue+Log+Info+Cover[Front + Back + CD]
Bitrate: Lossless
[/b]

[img]image[/img]

[b]
01. M.P.R. – Intro 00:19
02. Jazzystics Ft. Deborah Dixon – Day Tripper 03:12
03. Sarah Menescal – Here Comes The Sun 02:32
04. Betty Says – Yesterday 02;32
05. The Bryan J. White Quarter – Honey Pie 02:36
06. The Cooltrane Quarter – Oh! Darling 03:59
07. Deborah Dixon & Les Crossaders – A Hard Day’s Night 02:53
08. Scubba Ft. Sarah Menescal – Something 02:38
09. Eve St. Jone – Blackbird 02:18
10. M.P.R. – Intro (Part II) 00:23
11. Richard Eastwood – Let It Be 03:45
12. 48th St. Collective – Come Together 03:11
13. Jamie Lancaster – All You Need Is Love 03:25
14. Renauld & The Smooth Jazz Quintet – Hey Jude 03:34
[/b]

[img]image[/img]

[b]"Jazz and Beatles" is a collection of songs from the Lennon/McCartney songbook as performed by Jazz musicians. Since 'Jazz' can mean so many different things, the question beckons: what does this tribute sound like? This is contemporary Straight Jazz with a popular sensibility. Walking in a relaxed tempo, the brief renditions have a laid-back vibe. Almost surprisingly, the sound stays straight and almost never crosses the Smooth Jazz line. With the exception of 'Hey Jude,' every track features vocals, so instrumental enthusiasts should look elsewhere for something like the "Instrumental Jazz Tribute" or "Rubber Soulive." As far as the production goes, it sounds as if different vocalists sang with the same band during a studio session. The performances are all well-executed, but stock. In this sense, "Jazz and Beatles" doesn't inspire praise or condemnation. While there's nothing wrong with this project, there's also nothing here to write home about. Along these lines, there are no highlights to speak of as the arrangements and performances are all good but forgettable. At the end of the day, PMB has done better tributes like "Bossa n' Marley." If you're looking for some jazzy background sounds for a romantic evening, it will fit the bill in style. As a Beatles tribute, "Jazz and Beatles" can be skipped over.
[/b]

[img]image[/img]

[quote]Exact Audio Copy V1.0 beta 3 from 29. August 2011

EAC extraction logfile from 20. May 2012, 15:22

Various Artists / Jazz and Beatles

Used drive  : HL-DT-STDVDRAM GSA-T40N   Adapter: 0  ID: 0

Read mode               : Secure
Utilize accurate stream : Yes
Defeat audio cache      : Yes
Make use of C2 pointers : No

Read offset correction                      : 667
Overread into Lead-In and Lead-Out          : No
Fill up missing offset samples with silence : Yes
Delete leading and trailing silent blocks   : No
Null samples used in CRC calculations       : Yes
Used interface                              : Native Win32 interface for Win NT & 2000
Gap handling                                : Appended to previous track

Used output format              : User Defined Encoder
Selected bitrate                : 896 kBit/s
Quality                         : High
Add ID3 tag                     : No
Command line compressor         : C:\Program Files\Exact Audio Copy\FLAC\FLAC.EXE
Additional command line options : -8 -V -T "ARTIST=%artist%" -T "TITLE=%title%" -T "ALBUM=%albumtitle%" -T "DATE=%year%" -T "TRACKNUMBER=%tracknr%" -T "GENRE=%genre%" -T "COMMENT=%comment%" -T "BAND=%albuminterpret%" -T "ALBUMARTIST=%albuminterpret%" -T "COMPOSER=%composer%" %haslyrics%--tag-from-file=LYRICS="%lyricsfile%"%haslyrics% -T "DISCNUMBER=%cdnumber%" -T "TOTALDISCS=%totalcds%" -T "TOTALTRACKS=%numtracks%" %hascover%--picture="%coverfile%"%hascover% %source% -o %dest%


TOC of the extracted CD

     Track |   Start  |  Length  | Start sector | End sector 
    ---------------------------------------------------------
        1  |  0:00.00 |  0:20.06 |         0    |     1505   
        2  |  0:20.06 |  3:12.32 |      1506    |    15937   
        3  |  3:32.38 |  2:32.62 |     15938    |    27399   
        4  |  6:05.25 |  2:33.16 |     27400    |    38890   
        5  |  8:38.41 |  2:37.05 |     38891    |    50670   
        6  | 11:15.46 |  3:59.39 |     50671    |    68634   
        7  | 15:15.10 |  2:53.19 |     68635    |    81628   
        8  | 18:08.29 |  2:38.54 |     81629    |    93532   
        9  | 20:47.08 |  2:18.38 |     93533    |   103920   
       10  | 23:05.46 |  0:24.03 |    103921    |   105723   
       11  | 23:29.49 |  3:45.26 |    105724    |   122624   
       12  | 27:15.00 |  3:11.65 |    122625    |   137014   
       13  | 30:26.65 |  3:26.17 |    137015    |   152481   
       14  | 33:53.07 |  3:38.40 |    152482    |   168871   


Track  1

     Filename H:\MY EAC[.FLAC]\Various Artist - Jazz and Beatles\(1) INTRO - M.P.R..flac

     Pre-gap length  0:00:02.00

     Peak level 47.6 %
     Extraction speed 0.4 X
     Track quality 100.0 %
     Test CRC 2FEC41B4
     Copy CRC 2FEC41B4
     Track not present in AccurateRip database
     Copy OK

Track  2

     Filename H:\MY EAC[.FLAC]\Various Artist - Jazz and Beatles\(2) DAY TRIPPER - JAZZUSTICS FEAT. DEBORAH DIXON.flac

     Peak level 98.8 %
     Extraction speed 1.8 X
     Track quality 100.0 %
     Test CRC 7A7F3222
     Copy CRC 7A7F3222
     Track not present in AccurateRip database
     Copy OK

Track  3

     Filename H:\MY EAC[.FLAC]\Various Artist - Jazz and Beatles\(3) HERE COMES THE SUN - SARAH MENESCAL.flac

     Peak level 98.8 %
     Extraction speed 2.2 X
     Track quality 100.0 %
     Test CRC 0A560492
     Copy CRC 0A560492
     Track not present in AccurateRip database
     Copy OK

Track  4

     Filename H:\MY EAC[.FLAC]\Various Artist - Jazz and Beatles\(4) YESTERDAY - BETTY SAYS.flac

     Peak level 98.8 %
     Extraction speed 2.2 X
     Track quality 100.0 %
     Test CRC 107D56CB
     Copy CRC 107D56CB
     Track not present in AccurateRip database
     Copy OK

Track  5

     Filename H:\MY EAC[.FLAC]\Various Artist - Jazz and Beatles\(5) HONEY PIE - THE BRIAN JAZZ WHITE QUARTET.flac

     Peak level 98.8 %
     Extraction speed 2.4 X
     Track quality 100.0 %
     Test CRC 3A03D7CC
     Copy CRC 3A03D7CC
     Track not present in AccurateRip database
     Copy OK

Track  6

     Filename H:\MY EAC[.FLAC]\Various Artist - Jazz and Beatles\(6) OH! DARLING - THE COLTRANE QUARTET.flac

     Peak level 98.8 %
     Extraction speed 2.7 X
     Track quality 100.0 %
     Test CRC 9B19CE16
     Copy CRC 9B19CE16
     Track not present in AccurateRip database
     Copy OK

Track  7

     Filename H:\MY EAC[.FLAC]\Various Artist - Jazz and Beatles\(7) A HARD DAY'S NIGHT - DEBORAH DIXON E LES CROSSADERS.flac

     Peak level 98.8 %
     Extraction speed 2.3 X
     Track quality 99.9 %
     Test CRC 01DBBACB
     Copy CRC 01DBBACB
     Track not present in AccurateRip database
     Copy OK

Track  8

     Filename H:\MY EAC[.FLAC]\Various Artist - Jazz and Beatles\(8) SOMETHING - SCUBBA FEAT. SARAH MENESCAL.flac

     Peak level 98.8 %
     Extraction speed 1.3 X
     Track quality 99.9 %
     Test CRC 566AAAAE
     Copy CRC 566AAAAE
     Track not present in AccurateRip database
     Copy OK

Track  9

     Filename H:\MY EAC[.FLAC]\Various Artist - Jazz and Beatles\(9) BLACKBIRD - EVE ST. JONES.flac

     Peak level 87.2 %
     Extraction speed 1.5 X
     Track quality 100.0 %
     Test CRC 38C7397D
     Copy CRC 38C7397D
     Track not present in AccurateRip database
     Copy OK

Track 10

     Filename H:\MY EAC[.FLAC]\Various Artist - Jazz and Beatles\(10) INTRO PART 2 - M.P.R..flac

     Peak level 45.4 %
     Extraction speed 0.8 X
     Track quality 100.0 %
     Test CRC 317E2076
     Copy CRC 317E2076
     Track not present in AccurateRip database
     Copy OK

Track 11

     Filename H:\MY EAC[.FLAC]\Various Artist - Jazz and Beatles\(11) LET IT BE - RICHARD EASTWOOD.flac

     Peak level 98.8 %
     Extraction speed 1.3 X
     Track quality 100.0 %
     Test CRC 55E7BA20
     Copy CRC 55E7BA20
     Track not present in AccurateRip database
     Copy OK

Track 12

     Filename H:\MY EAC[.FLAC]\Various Artist - Jazz and Beatles\(12) COME TOGHETHER - 48TH ST. COLLECTIVE.flac

     Peak level 98.8 %
     Extraction speed 1.4 X
     Track quality 99.9 %
     Test CRC 2867ADDE
     Copy CRC 2867ADDE
     Track not present in AccurateRip database
     Copy OK

Track 13

     Filename H:\MY EAC[.FLAC]\Various Artist - Jazz and Beatles\(13) ALL YOU NEED IS LOVE - JAMIE LANCASTER.flac

     Peak level 98.8 %
     Extraction speed 1.7 X
     Track quality 100.0 %
     Test CRC C5C3DF65
     Copy CRC C5C3DF65
     Track not present in AccurateRip database
     Copy OK

Track 14

     Filename H:\MY EAC[.FLAC]\Various Artist - Jazz and Beatles\(14) HEY JUDE - THE SMOOTH JAZZ QUINTET.flac

     Peak level 98.8 %
     Extraction speed 1.8 X
     Track quality 100.0 %
     Test CRC B35B2CB2
     Copy CRC B35B2CB2
     Track not present in AccurateRip database
     Copy OK


None of the tracks are present in the AccurateRip database

No errors occurred

End of status report

==== Log checksum F7FE29B6985A4A57F6EE44321D94D53727A064F049C87FF3E13FC74EF3B19B5E ====
[/quote]

[img]image[/img]

[img]image[/img]
(1) INTRO - M.P.R..flac 1.157 MB
(10) INTRO PART 2 - M.P.R..flac 1.501 MB
(11) LET IT BE - RICHARD EASTWOOD.flac 22.78 MB
Gathering some info...

Register and log in Isohunt and see no captcha anymore!

4000 symbols left
Hash 44CBFA6DFFA13FE486816F9DB6D0AD8104EAED36