imdb
rating

5.4
Merlin's Apprentice

Merlin's Apprentice (2006)

Adventure, Fantasy

Full description
quality   dvdrip dvdr

Merlin39s Apprentice 2006 2DVDrip English Klam

Size 3.521 GB   0 seeders     Added 2012-05-23 02:54:53

Stream torrent
Starting‥ You need BitLord! Get it from BitLord.com
To download or stream you need BitLord. Visit them at BitLord.com
[img] image[/img]\r\n\r\nWith: Sam Neill, John Reardon and Miranda Richardson\r\n\r\nDe grote tovenaar Merlijn keert terug naar Camelot waar chaos en oorlog hoogtij voeren, omdat diverse partijen de Heilige Graal in handen willen hebben. Merlijn en een kleine kruimeldief willen hier een einde aan maken en gaan zelf op zoek naar de Graal.\r\n\r\nThe great sorcerer Merlin has returned to Camelot, a kingdom now vulnerable to ill fates and war since the theft of the Holy Grail...\r\n\r\nhttp://www.imdb.com/title/tt0463826\r\n\r\n[COLOR=#3300FF]------------------------ Dutch Friends ------------------------\r\n---------------------------------------------------------------\r\n- Bezoek ook eens mijn vrienden op:  http://www.Film-Test.nl --\r\n----- voor mijn Nederlandse Sync. ondertitels ---- en meer ----\r\n------- http://www.Film-Test.nl ---- voor Films en meer -------\r\n---------------------------------------------------------------[/COLOR]\r\n\r\nGeneral:\r\n\r\nComplete name                    : Merlins Apprentice\\Part01.avi\r\nFormat                           : AVI\r\nFormat/Info                      : Audio Video Interleave\r\nFile size                        : 1.55 GiB\r\nDuration                         : 1h 28mn\r\nOverall bit rate                 : 2 522 Kbps\r\n\r\nVideo:\r\n\r\nFormat                           : MPEG-4 Visual\r\nFormat profile                   : Simple@L3\r\nFormat settings, BVOP            : No\r\nFormat settings, QPel            : No\r\nFormat settings, GMC             : No warppoints\r\nFormat settings, Matrix          : Default (H.263)\r\nCodec ID                         : XVID\r\nCodec ID/Hint                    : XviD\r\nDuration                         : 1h 28mn\r\nBit rate                         : 2 063 Kbps\r\nWidth                            : 704 pixels\r\nHeight                           : 396 pixels\r\nDisplay aspect ratio             : 16:9\r\nFrame rate                       : 25.000 fps\r\nColor space                      : YUV\r\nChroma subsampling               : 4:2:0\r\nBit depth                        : 8 bits\r\nScan type                        : Progressive\r\nCompression mode                 : Lossy\r\nBits/(Pixel*Frame)               : 0.296\r\nStream size                      : 1.27 GiB (82%)\r\nWriting library                  : XviD 1.1.2 (UTC 2006-11-01)\r\n\r\nAudio:\r\n\r\nFormat                           : AC-3\r\nFormat/Info                      : Audio Coding 3\r\nMode extension                   : CM (complete main)\r\nCodec ID                         : 2000\r\nDuration                         : 1h 28mn\r\nBit rate mode                    : Constant\r\nBit rate                         : 448 Kbps\r\nChannel(s)                       : 6 channels\r\nChannel positions                : Front: L C R, Side: L R, LFE\r\nSampling rate                    : 48.0 KHz\r\nBit depth                        : 16 bits\r\nCompression mode                 : Lossy\r\nStream size                      : 282 MiB (18%)\r\nAlignment                        : Aligned on interleaves\r\nInterleave, duration             : 32 ms (0.80 video frame)
Cover/Merlin's Apprentice 2006.jpg 35.455 KB
Cover/www.Film-Test.nl.JPG 34.175 KB
New Dutch Site.txt 117 B
Gathering some info...

Register and log in Isohunt and see no captcha anymore!

4000 symbols left
Hash A1FC7A17DE5B178D614CB3EBBC3E3AF77D664B6D

Related torrents for "Merlin39s Apprentice 2006 2DVDrip English Klam"

Torrent search:

english 2006