Prometheus(2012)FRENCH DVDRip XviD - MAX

Size 732.966 MB   0 seeders     Added 2012-05-23 20:33:15

To download or stream you need BitLord. Visit them at BitLord.com
Prometheus(2012)FRENCH DVDRip XviD - MAX
Format : AVI
Format/Info : Audio Video Interleave
Format profile : OpenDML
File size : 699 MiB
Duration : 2h 22mn
Overall bit rate : 1 052 Kbps
Writing application : VirtualDubMod 1.5.10.2 (build 2542/release)
Writing library : VirtualDubMod build 2542/release
Video
ID : 0
Format : MPEG-4 Visual
Format profile : AdvancedSimple@L5
Format settings, BVOP : Yes
Format settings, QPel : No
Format settings, GMC : No warppoints
Format settings, Matrix : Default (MPEG)
Codec ID : XVID
Codec ID/Hint : XviD
Duration : 2h 22mn
Bit rate : 942 Kbps
Width : 640 pixels
Height : 272 pixels
Display aspect ratio : 2.35:1
Frame rate : 23.976 fps
Resolution : 24 bits
Colorimetry : 4:2:0
Scan type : Progressive
Bits/(Pixel*Frame) : 0.271
Stream size : 669 MiB (78%)
Writing library : XviD 1.2.1 (UTC 2008-12-04)
Audio
ID : 1
Format : AC-3
Format/Info : Audio Coding 3
Codec ID : 2000
Duration : 2h 22mn
Bit rate mode : Constant
Bit rate : 128 Kbps
Channel(s) : 2 channels
Channel positions : Front: L  R
Sampling rate : 48.0 KHz
Stream size : 30 MiB (22%)
Alignment : Aligned on interleaves
Interleave, duration : 64 ms (1.53 video frames)
Interleave, preload duration : 192 ms
Source: DVD (perfect a/v/sync quality,sample included)


This torrent is not seedbox supported,please seed it.
............................................................
............................................................
Prometheus(2012)FRENCH DVDRip XviD - MAX/cover.jpg 5.146 KB
Prometheus(2012)FRENCH DVDRip XviD - MAX/Prometheus(2012)FRENCH DVDRip XviD - MAX.nfo 1.494 KB
Prometheus(2012)FRENCH DVDRip XviD - MAX/Prometheus(2012)FRENCH DVDRip XviD - MAX/Prometheus(2012)FRENCH DVDRip XviD - MAX.rar 732.955 MB
Gathering some info...

Register and log in Isohunt and see no captcha anymore!

4000 symbols left
Hash ae0bae87516afb03af619a32608695f473ceb587

Related torrents for "Prometheus(2012)FRENCH DVDRip XviD - MAX"

Torrent search:

french 2012