The Incredibles 2004 720p BrRip~~~TeJaS_XpEnDaBlE {{a2zRG}}

Size 618.362 MB   0 seeders     Added 2012-05-25 01:29:05

Stream torrent
Starting‥ You need BitLord! Get it from BitLord.com
To download or stream you need BitLord. Visit them at BitLord.com
[COLOR=#DD0000][SIZE=16][U][I][B]The Incredibles 2004 720p BrRip~~~[TeJaS_XpEnDaBlE] {{a2zRG}}[/B]
[/I][/U][/SIZE][/COLOR]
[URL=http://nimga.com/v/0213R][IMG]image[/IMG][/URL]

[URL=http://nimga.com/v/AUDwH][IMG]image[/IMG][/URL]

[URL=http://nimga.com/v/Gt7MQ][IMG]image[/IMG][/URL]

[url]http://www.imdb.com/title/tt0317705/[/url]



General

Complete name                            : The Incredibles 2004 720p BrRip~~~[TeJaS_XpEnDaBlE] {{a2zRG}}
Format                                   : MPEG-4
Format profile                           : Base Media / Version 2
Codec ID                                 : mp42
File size                                : 590 MiB
Duration                                 : 1h 55mn
Overall bit rate mode                    : Variable
Overall bit rate                         : 714 Kbps
Encoded date                             : UTC 2012-05-24 05:41:26
Tagged date                              : UTC 2012-05-24 06:59:47
Writing application                      : HandBrake 0.9.5 2011010300

Video

ID                                       : 1
Format                                   : AVC
Format/Info                              : Advanced Video Codec
Format profile                           : Baseline@L3.0
Format settings, CABAC                   : No
Format settings, ReFrames                : 1 frame
Codec ID                                 : avc1
Codec ID/Info                            : Advanced Video Coding
Duration                                 : 1h 55mn
Bit rate mode                            : Variable
Bit rate                                 : 557 Kbps
Width                                    : 1 280 pixels
Height                                   : 544 pixels
Display aspect ratio                     : 2.35:1
Frame rate mode                          : Variable
Frame rate                               : 23.976 fps
Minimum frame rate                       : 5.994 fps
Maximum frame rate                       : 23.981 fps
Color space                              : YUV
Chroma subsampling                       : 4:2:0
Bit depth                                : 8 bits
Scan type                                : Progressive
Bits/(Pixel*Frame)                       : 0.033
Stream size                              : 455 MiB (77%)
Writing library                          : x264 core 112

Audio

ID                                       : 2
Format                                   : AAC
Format/Info                              : Advanced Audio Codec
Format profile                           : LC
Codec ID                                 : 40
Duration                                 : 1h 55mn
Bit rate mode                            : Variable
Bit rate                                 : 160 Kbps
Maximum bit rate                         : 310 Kbps
Channel(s)                               : 2 channels
Channel positions                        : Front: L R
Sampling rate                            : 44.1 KHz
Compression mode                         : Lossy
Stream size                              : 132 MiB (22%)









Facebook :-

If You Like My Post Then Please Visit :-

[URL=http://nimga.com/v/j0Clv][IMG]image[/IMG][/URL]


Facebook Page :-  [url]http://www.facebook.com/pages/A2Z-RG/278496908901013[/url]


Facebook Group :-  [url]http://www.facebook.com/groups/403553456329800/[/url]


Screen Shots :-
[URL=http://nimga.com/v/TMCc2][IMG]image[/IMG][/URL]

[URL=http://nimga.com/v/VcZ59][IMG]image[/IMG][/URL]

[URL=http://nimga.com/v/0gy9g][IMG]image[/IMG][/URL]

[URL=http://nimga.com/v/77EP8][IMG]image[/IMG][/URL]

[URL=http://nimga.com/v/oWLSO][IMG]image[/IMG][/URL]





[URL=http://nimga.com/v/E4T9W][IMG]image[/IMG][/URL]


[URL=http://nimga.com/v/tARlA][IMG]image[/IMG][/URL]
The Incredibles 2004 720p BrRip~~~[TeJaS_XpEnDaBlE] {{a2zRG}}.m4v 618.231 MB
The Incredibles 2004 720p BrRip~~~[TeJaS_XpEnDaBlE] {{a2zRG}}.srt 104.656 KB
The Incredible Cover.jpg 25.476 KB
Gathering some info...

Register and log in Isohunt and see no captcha anymore!

4000 symbols left
Hash 4FB8000B31A44646AEF3D0D52ACD5E66DFFD6EF5