Sergio Mendes e The New Brasil 77

Size 217.814 MB   20 seeders     Added 2012-05-25 01:34:29

Stream torrent
Starting‚Ä• You need BitLord! Get it from BitLord.com
10
To download or stream you need BitLord. Visit them at BitLord.com
[img]image[/img]

[img]image[/img]

[img]image[/img]

[img]image[/img]

[b]Artist: Various Artist 
Artist: Sergio Mendes & The New Brasil 77
Title Of Album: Sergio Mendes & The New Brasil 77
Etichetta: Atlantic/Warner Jazz 
Pubblicazione: LP 1977 CD 2006
Genre: Bossa/Jazz
Source: CD
Playing Time: 32.04
Total Size: 207,45 MB
Quality: FLAC+Cue+Log+Info+Cover[Front + Back + CD]
Bitrate: Lossless
[/b]

[img]image[/img]

[b]
01. Love Me Tomorrow
02. Love City
03. Mozambique
04. If You Leave Me Now
05. Peninsula
06. Why
07. The Real Thing
08. P-ka-boo
09. Life
[/b]

[img]image[/img]

[b]I purchased this CD because I am a BIG fan of Sergio M and Brasil '65, '66 and '77. This is the NEW '77 with pretty much a whole new cast and somewhat of a new sound. The remnants of Bossa Nova are buried in this release...The cut "Real Thing" was a favorite of mine when it received air-play on the radio (back in 1978!)... I still prefer the sound of the original Brasil '77, however the only way to get their music is through collector's or on auction sites...I still recommend this release, but prefer the older '66/'77 sound...if you want to complete your collection, then definitely buy it! The sound quality is excellent!
[/b]

[img]image[/img]

[quote]Exact Audio Copy V1.0 beta 3 from 29. August 2011

EAC extraction logfile from 13. May 2012, 12:53

Sergio Mendes / The Beat of Brazil

Used drive  : HL-DT-STDVDRAM GSA-T40N   Adapter: 0  ID: 0

Read mode               : Secure
Utilize accurate stream : Yes
Defeat audio cache      : Yes
Make use of C2 pointers : No

Read offset correction                      : 667
Overread into Lead-In and Lead-Out          : No
Fill up missing offset samples with silence : Yes
Delete leading and trailing silent blocks   : No
Null samples used in CRC calculations       : Yes
Used interface                              : Native Win32 interface for Win NT & 2000
Gap handling                                : Appended to previous track

Used output format              : User Defined Encoder
Selected bitrate                : 896 kBit/s
Quality                         : High
Add ID3 tag                     : No
Command line compressor         : C:\Program Files\Exact Audio Copy\FLAC\FLAC.EXE
Additional command line options : -8 -V -T "ARTIST=%artist%" -T "TITLE=%title%" -T "ALBUM=%albumtitle%" -T "DATE=%year%" -T "TRACKNUMBER=%tracknr%" -T "GENRE=%genre%" -T "COMMENT=%comment%" -T "BAND=%albuminterpret%" -T "ALBUMARTIST=%albuminterpret%" -T "COMPOSER=%composer%" %haslyrics%--tag-from-file=LYRICS="%lyricsfile%"%haslyrics% -T "DISCNUMBER=%cdnumber%" -T "TOTALDISCS=%totalcds%" -T "TOTALTRACKS=%numtracks%" %hascover%--picture="%coverfile%"%hascover% %source% -o %dest%


TOC of the extracted CD

     Track |   Start  |  Length  | Start sector | End sector 
    ---------------------------------------------------------
        1  |  0:00.00 |  2:21.72 |         0    |    10646   
        2  |  2:21.72 |  2:54.35 |     10647    |    23731   
        3  |  5:16.32 |  3:15.05 |     23732    |    38361   
        4  |  8:31.37 |  2:45.30 |     38362    |    50766   
        5  | 11:16.67 |  3:57.08 |     50767    |    68549   
        6  | 15:14.00 |  2:25.27 |     68550    |    79451   
        7  | 17:39.27 |  4:07.63 |     79452    |    98039   
        8  | 21:47.15 |  2:19.10 |     98040    |   108474   
        9  | 24:06.25 |  3:18.60 |    108475    |   123384   
       10  | 27:25.10 |  2:19.13 |    123385    |   133822   


Track  1

     Filename H:\MY EAC[.FLAC]\Sergio Mendes - The Beat of Brazil\(1) Nana - Sergio Mendes.flac

     Pre-gap length  0:00:02.00

     Peak level 99.9 %
     Extraction speed 1.9 X
     Track quality 100.0 %
     Test CRC FAA756A4
     Copy CRC FAA756A4
     Cannot be verified as accurate (confidence 1)  [6742424F], AccurateRip returned [8480DC50]  (AR v2)
     Copy OK

Track  2

     Filename H:\MY EAC[.FLAC]\Sergio Mendes - The Beat of Brazil\(2) Amor Em Paz - Sergio Mendes.flac

     Peak level 99.9 %
     Extraction speed 2.1 X
     Track quality 100.0 %
     Test CRC 0284FF8D
     Copy CRC 0284FF8D
     Cannot be verified as accurate (confidence 1)  [6203F4A4], AccurateRip returned [0DBA3A3C]  (AR v2)
     Copy OK

Track  3

     Filename H:\MY EAC[.FLAC]\Sergio Mendes - The Beat of Brazil\(3) Garota De Ipanema - Sergio Mendes.flac

     Peak level 99.9 %
     Extraction speed 2.3 X
     Track quality 100.0 %
     Test CRC DFFBF739
     Copy CRC DFFBF739
     Cannot be verified as accurate (confidence 1)  [F1B9A872], AccurateRip returned [6D342B08]  (AR v2)
     Copy OK

Track  4

     Filename H:\MY EAC[.FLAC]\Sergio Mendes - The Beat of Brazil\(4) Coisa No 2 - Sergio Mendes.flac

     Peak level 99.9 %
     Extraction speed 2.4 X
     Track quality 100.0 %
     Test CRC DA792C93
     Copy CRC DA792C93
     Cannot be verified as accurate (confidence 1)  [7CFEDE70], AccurateRip returned [3BE7A5A3]  (AR v2)
     Copy OK

Track  5

     Filename H:\MY EAC[.FLAC]\Sergio Mendes - The Beat of Brazil\(5) Primitivo - Sergio Mendes.flac

     Peak level 99.9 %
     Extraction speed 2.7 X
     Track quality 100.0 %
     Test CRC 65ACB855
     Copy CRC 65ACB855
     Cannot be verified as accurate (confidence 1)  [2AAEC514], AccurateRip returned [8D864B0F]  (AR v2)
     Copy OK

Track  6

     Filename H:\MY EAC[.FLAC]\Sergio Mendes - The Beat of Brazil\(6) Ele e Carioca - Sergio Mendes.flac

     Peak level 99.9 %
     Extraction speed 2.6 X
     Track quality 100.0 %
     Test CRC 2C1F910A
     Copy CRC 2C1F910A
     Cannot be verified as accurate (confidence 1)  [CD2943AA], AccurateRip returned [1ABA8E48]  (AR v2)
     Copy OK

Track  7

     Filename H:\MY EAC[.FLAC]\Sergio Mendes - The Beat of Brazil\(7) Corcovado - Sergio Mendes.flac

     Peak level 99.9 %
     Extraction speed 2.8 X
     Track quality 100.0 %
     Test CRC F16D257F
     Copy CRC F16D257F
     Cannot be verified as accurate (confidence 1)  [E4F6CF97], AccurateRip returned [9D24D251]  (AR v2)
     Copy OK

Track  8

     Filename H:\MY EAC[.FLAC]\Sergio Mendes - The Beat of Brazil\(8) Noa Noa - Sergio Mendes.flac

     Peak level 99.9 %
     Extraction speed 2.3 X
     Track quality 99.9 %
     Test CRC 159CB769
     Copy CRC 159CB769
     Cannot be verified as accurate (confidence 1)  [9B1D228B], AccurateRip returned [D8C34126]  (AR v2)
     Copy OK

Track  9

     Filename H:\MY EAC[.FLAC]\Sergio Mendes - The Beat of Brazil\(9) Desafinado - Sergio Mendes.flac

     Peak level 99.9 %
     Extraction speed 3.0 X
     Track quality 100.0 %
     Test CRC 504454F8
     Copy CRC 504454F8
     Cannot be verified as accurate (confidence 1)  [0ACCF1CC], AccurateRip returned [FDEC9675]  (AR v2)
     Copy OK

Track 10

     Filename H:\MY EAC[.FLAC]\Sergio Mendes - The Beat of Brazil\(10) Neurotico - Sergio Mendes.flac

     Peak level 99.9 %
     Extraction speed 2.9 X
     Track quality 100.0 %
     Test CRC 9C7484B0
     Copy CRC 9C7484B0
     Cannot be verified as accurate (confidence 1)  [75D9D193], AccurateRip returned [C178C01F]  (AR v2)
     Copy OK


No tracks could be verified as accurate
You may have a different pressing from the one(s) in the database

No errors occurred

End of status report

==== Log checksum BA051508EE744A04FAA268907A7368D33E802AA651BFD3036E3A5943C55FB5A5 ====
[/quote]

[img]image[/img]

[img]image[/img]
Folder/2.Back.jpg 86.11 KB
Folder/DSC00840.gif 91.961 KB
Folder/DSC00842.JPG 94.691 KB
Gathering some info...

Register and log in Isohunt and see no captcha anymore!

4000 symbols left
Hash 4A7EB5EDD2027597F0B4D9AD99948918B586857D