Broken Arrow

Broken Arrow (1956)

Drama, Western

Full description

Broken Arrow 1996 720p BrRip[TeJaS XpEnDaBlE] a2zRG

Size 1.335 GB   0 seeders     Added 2012-05-25 02:54:45

Stream torrent
Starting‥ You need BitLord! Get it from BitLord.com
To download or stream you need BitLord. Visit them at BitLord.com
[COLOR=#DD0000]([SIZE=16][U][I][B]Broken Arrow 1996 720p BrRip~~~[TeJaS_XpEnDaBlE] {{a2zRG}}[/B]\r\n[/I][/U][/SIZE] [/COLOR]\r\n[URL=http://nimga.com/v/0213R][IMG]image[/IMG][/URL]\r\n\r\n[URL=http://nimga.com/v/i2ckL][IMG]image[/IMG][/URL]\r\n\r\n[URL=http://nimga.com/v/Gt7MQ][IMG]image[/IMG][/URL]\r\n\r\n[url]http://www.imdb.com/title/tt0115759/[/url]\r\n\r\n\r\n\r\nGeneral\r\n\r\nComplete name                            : Broken Arrow 1996 720p BrRip~~~[TeJaS_XpEnDaBlE] {{a2zRG}}\r\nFormat                                   : MPEG-4\r\nFormat profile                           : Base Media / Version 2\r\nCodec ID                                 : mp42\r\nFile size                                : 1.24 GiB\r\nDuration                                 : 1h 48mn\r\nOverall bit rate mode                    : Variable\r\nOverall bit rate                         : 1 643 Kbps\r\nEncoded date                             : UTC 2012-05-23 10:20:12\r\nTagged date                              : UTC 2012-05-23 12:26:14\r\nWriting application                      : HandBrake 0.9.5 2011010300\r\n\r\nVideo\r\n\r\nID                                       : 1\r\nFormat                                   : AVC\r\nFormat/Info                              : Advanced Video Codec\r\nFormat profile                           : Baseline@L3.0\r\nFormat settings, CABAC                   : No\r\nFormat settings, ReFrames                : 1 frame\r\nCodec ID                                 : avc1\r\nCodec ID/Info                            : Advanced Video Coding\r\nDuration                                 : 1h 48mn\r\nBit rate mode                            : Variable\r\nBit rate                                 : 1 500 Kbps\r\nWidth                                    : 1 280 pixels\r\nHeight                                   : 544 pixels\r\nDisplay aspect ratio                     : 2.35:1\r\nFrame rate mode                          : Variable\r\nFrame rate                               : 23.976 fps\r\nMinimum frame rate                       : 7.992 fps\r\nMaximum frame rate                       : 23.981 fps\r\nColor space                              : YUV\r\nChroma subsampling                       : 4:2:0\r\nBit depth                                : 8 bits\r\nScan type                                : Progressive\r\nBits/(Pixel*Frame)                       : 0.090\r\nStream size                              : 1.12 GiB (90%)\r\nWriting library                          : x264 core 112\r\n\r\nAudio\r\n\r\nID                                       : 2\r\nFormat                                   : AAC\r\nFormat/Info                              : Advanced Audio Codec\r\nFormat profile                           : LC\r\nCodec ID                                 : 40\r\nDuration                                 : 1h 48mn\r\nBit rate mode                            : Variable\r\nBit rate                                 : 160 Kbps\r\nMaximum bit rate                         : 252 Kbps\r\nChannel(s)                               : 2 channels\r\nChannel positions                        : Front: L R\r\nSampling rate                            : 48.0 KHz\r\nCompression mode                         : Lossy\r\nStream size                              : 124 MiB (10%)\r\n\r\n\r\n\r\n\r\n\r\n\r\nFacebook :-\r\n\r\nIf You Like My Post Then Please Visit :-\r\n\r\n[URL=http://nimga.com/v/j0Clv][IMG]image[/IMG][/URL]\r\n\r\n\r\nFacebook Page :-  [url]http://www.facebook.com/pages/A2Z-RG/278496908901013[/url]\r\n\r\n\r\nFacebook Group :-  [url]http://www.facebook.com/groups/403553456329800/[/url]\r\n\r\n\r\nScreen Shots :-\r\n\r\n\r\n[URL=http://nimga.com/v/d1Xk1][IMG]image[/IMG][/URL]\r\n\r\n[URL=http://nimga.com/v/JeDpo][IMG]image[/IMG][/URL]\r\n\r\n[URL=http://nimga.com/v/SR0MU][IMG]image[/IMG][/URL]\r\n\r\n[URL=http://nimga.com/v/7VwQG][IMG]image[/IMG][/URL]\r\n\r\n\r\n\r\n\r\n[URL=http://nimga.com/v/E4T9W][IMG]image[/IMG][/URL]\r\n\r\n\r\n[URL=http://nimga.com/v/tARlA][IMG]image[/IMG][/URL]
AhaShare.com.txt 59 B
Broken Arrow 1996 720p BrRip~~~[TeJaS_XpEnDaBlE] {{a2zRG}}.m4v 1.335 GB
Broken Arrow 1996 720p BrRip~~~[TeJaS_XpEnDaBlE] {{a2zRG}}.srt 72.459 KB
Gathering some info...

Register and log in Isohunt and see no captcha anymore!

4000 symbols left
Hash 140272DA835DD2247C23ACE88202BD926FC558F8

Related torrents for "Broken Arrow 1996 720p BrRip[TeJaS XpEnDaBlE] a2zRG"

Torrent search:

1996 hd bd