Moonrise Kingdom (2012) TS Xvid READ NFO UnKnOwN

Size 1.433 GB   0 seeders     Added 2012-05-25 12:37:15

Stream torrent
Starting‥ You need BitLord! Get it from BitLord.com
To download or stream you need BitLord. Visit them at BitLord.com
Moonrise Kingdom (2012) TS Xvid READ NFO UnKnOwN\r\n\r\nSOURCES:\r\nVIDEO - Lumx1 DVDR THANKS\r\nAUDIO - RiPLEGENDZ THANKS\r\nSUBS  - ENG HARDCODED WHEN NEED\r\n\r\nSTATS:\r\n\r\nVideo\r\nID                                       : 0\r\nFormat                                   : MPEG-4 Visual\r\nFormat profile                           : Advanced Simple@L5\r\nFormat settings, BVOP                    : 2\r\nFormat settings, QPel                    : No\r\nFormat settings, GMC                     : No warppoints\r\nFormat settings, Matrix                  : Default (MPEG)\r\nMuxing mode                              : Packed bitstream\r\nCodec ID                                 : XVID\r\nCodec ID/Hint                            : XviD\r\nDuration                                 : 1h 45mn\r\nBit rate                                 : 1 736 Kbps\r\nWidth                                    : 720 pixels\r\nHeight                                   : 304 pixels\r\nDisplay aspect ratio                     : 2.35:1\r\nFrame rate                               : 25.000 fps\r\nColor space                              : YUV\r\nChroma subsampling                       : 4:2:0\r\nBit depth                                : 8 bits\r\nScan type                                : Progressive\r\nCompression mode                         : Lossy\r\nBits/(Pixel*Frame)                       : 0.317\r\nStream size                              : 1.28 GiB (93%)\r\nWriting library                          : XviD 64\r\n\r\nAudio\r\nID                                       : 1\r\nFormat                                   : MPEG Audio\r\nFormat version                           : Version 1\r\nFormat profile                           : Layer 3\r\nCodec ID                                 : 55\r\nCodec ID/Hint                            : MP3\r\nDuration                                 : 1h 45mn\r\nBit rate mode                            : Constant\r\nBit rate                                 : 128 Kbps\r\nChannel(s)                               : 2 channels\r\nSampling rate                            : 48.0 KHz\r\nCompression mode                         : Lossy\r\nStream size                              : 96.6 MiB (7%)\r\nAlignment                                : Split accross interleaves\r\nInterleave, duration                     : 40 ms (1.00 video frame)\r\nInterleave, preload duration             : 500 ms\r\n\r\n\r\nNOTES:\r\n\r\nOk here we go we our version which is not a re-encode of the dvdrip but ripped straight from the DVDR\r\nThe dvdr was ok but was a bit lifeless and also had a faint line 2pixels under the top black border.\r\nAudio is new and different too all other  releases and is 10x better aswell.\r\n\r\nVideo ....made a script too crop the dvd inc the 2 etxra pixels too remove that faint line,resized,changed contrast,brightness,chroma and rgb levels.\r\nAlso used a heavy noise filter and finally added some sharpness back into it.
Moonrise Kingdom (2012) TS Xvid READ NFO UnKnOwN/MOVIE.nfo 4.858 KB
Moonrise Kingdom (2012) TS Xvid READ NFO UnKnOwN/Moonrise Kingdom (2012) TS Xvid READ NFO UnKnOwN.avi 1.433 GB
Moonrise Kingdom (2012) TS Xvid READ NFO UnKnOwN/Moonrise Kingdom (2012) TS Xvid READ NFO UnKnOwN.jpg 23.229 KB
Gathering some info...

Register and log in Isohunt and see no captcha anymore!

4000 symbols left
Hash c8e84385752fab2d4cdebd6886662bca87b6d856