Various Artist - Tribute in Bossa to The Beatles

Size 327.835 MB   35 seeders     Added 2012-05-26 02:43:27

Stream torrent
Starting‚Ä• You need BitLord! Get it from BitLord.com
8.3
To download or stream you need BitLord. Visit them at BitLord.com
[CENTER][img]image[/img]

[img]image[/img]

[img]image[/img]

[img]image[/img]

[b]Artist: Various Artist
Title Of Album: Tribute in Bossa to "THE BEATLES"
Etichetta: Albatros 
Pubblicazione: CD 2010
Genre: Bossa/Jazz
Source: CD
Playing Time: 51.20
Total Size: 312,37 MB
Quality: FLAC+Cue+Log+Info+Cover[Front + Back + CD]
Bitrate: Lossless
[/b]

[img]image[/img]

[b]
1.Come Together - Monique Kessous
2.A Hard Day'S Night - Monique Kessous
3.Help - Barbara Mendes
4.Got To Get You Into My Life - Lulu Joppert
5.Day Tripper - Tahta Menezes
6.We Can Work It Out - Marcela Mangabeira
7.Yesterday - Monique Kessous
8.Penny Lane - Maria Augusta
9.Hey Jude - Monique Kessous
10.Eleanor Rigby - Eduardo Braga
11.Can'T Buy Me Love - Tahta Menezes
12.She Loves You - Monique Kessous
13.Ticket To Ride - Taryn Szpilman
14.Something - Cris Delanno
15.Let It Be - Marcela Mangabeira
[/b]

[img]image[/img]

[b]THE BEATLES Tribute In Bossa To... (2010 BR 15-track CD album - Halidon and Mediane are pleased to present an elegant collection of the Beatles' masterpieces, revisited in a Bossanova style, renewed with the arrangements of Barbara Mendes and Tahta Menezes. Includes versions of 'Come Together', 'A Hard Day's Night', 'Yesterday', 'Penny Lane', 'Hey Jude', 'She Loves You', 'Let It Be' and more...). 
[/b]

[img]image[/img]

[quote]Exact Audio Copy V1.0 beta 3 from 29. August 2011

EAC extraction logfile from 24. May 2012, 18:10

Various Artists / Tribute in Bossa to The Beatles

Used drive  : HL-DT-STDVDRAM GSA-T40N   Adapter: 0  ID: 0

Read mode               : Secure
Utilize accurate stream : Yes
Defeat audio cache      : Yes
Make use of C2 pointers : No

Read offset correction                      : 667
Overread into Lead-In and Lead-Out          : No
Fill up missing offset samples with silence : Yes
Delete leading and trailing silent blocks   : No
Null samples used in CRC calculations       : Yes
Used interface                              : Native Win32 interface for Win NT & 2000
Gap handling                                : Appended to previous track

Used output format              : User Defined Encoder
Selected bitrate                : 896 kBit/s
Quality                         : High
Add ID3 tag                     : No
Command line compressor         : C:\Program Files\Exact Audio Copy\FLAC\FLAC.EXE
Additional command line options : -8 -V -T "ARTIST=%artist%" -T "TITLE=%title%" -T "ALBUM=%albumtitle%" -T "DATE=%year%" -T "TRACKNUMBER=%tracknr%" -T "GENRE=%genre%" -T "COMMENT=%comment%" -T "BAND=%albuminterpret%" -T "ALBUMARTIST=%albuminterpret%" -T "COMPOSER=%composer%" %haslyrics%--tag-from-file=LYRICS="%lyricsfile%"%haslyrics% -T "DISCNUMBER=%cdnumber%" -T "TOTALDISCS=%totalcds%" -T "TOTALTRACKS=%numtracks%" %hascover%--picture="%coverfile%"%hascover% %source% -o %dest%


TOC of the extracted CD

     Track |   Start  |  Length  | Start sector | End sector 
    ---------------------------------------------------------
        1  |  0:00.00 |  4:00.61 |         0    |    18060   
        2  |  4:00.61 |  2:42.06 |     18061    |    30216   
        3  |  6:42.67 |  3:29.70 |     30217    |    45961   
        4  | 10:12.62 |  3:47.38 |     45962    |    63024   
        5  | 14:00.25 |  4:19.08 |     63025    |    82457   
        6  | 18:19.33 |  3:31.58 |     82458    |    98340   
        7  | 21:51.16 |  2:25.53 |     98341    |   109268   
        8  | 24:16.69 |  2:55.08 |    109269    |   122401   
        9  | 27:12.02 |  3:37.07 |    122402    |   138683   
       10  | 30:49.09 |  3:03.38 |    138684    |   152446   
       11  | 33:52.47 |  3:08.69 |    152447    |   166615   
       12  | 37:01.41 |  3:52.69 |    166616    |   184084   
       13  | 40:54.35 |  3:04.56 |    184085    |   197940   
       14  | 43:59.16 |  2:46.53 |    197941    |   210443   
       15  | 46:45.69 |  4:35.02 |    210444    |   231070   


Track  1

     Filename H:\MY EAC[.FLAC]\Tribute in Bossa to The Beatles\(1) Come Together - Monique Kessous.flac

     Pre-gap length  0:00:02.00

     Peak level 100.0 %
     Extraction speed 1.8 X
     Track quality 100.0 %
     Test CRC 6C8F73B1
     Copy CRC 6C8F73B1
     Track not present in AccurateRip database
     Copy OK

Track  2

     Filename H:\MY EAC[.FLAC]\Tribute in Bossa to The Beatles\(2) A Hard Day'S Night - Monique Kessous.flac

     Peak level 100.0 %
     Extraction speed 2.2 X
     Track quality 100.0 %
     Test CRC CEE8A112
     Copy CRC CEE8A112
     Track not present in AccurateRip database
     Copy OK

Track  3

     Filename H:\MY EAC[.FLAC]\Tribute in Bossa to The Beatles\(3) Help - Barbara Mendes.flac

     Peak level 100.0 %
     Extraction speed 2.5 X
     Track quality 100.0 %
     Test CRC 0D36BA61
     Copy CRC 0D36BA61
     Track not present in AccurateRip database
     Copy OK

Track  4

     Filename H:\MY EAC[.FLAC]\Tribute in Bossa to The Beatles\(4) Got To Get You Into My Life - Lulu Joppert.flac

     Peak level 100.0 %
     Extraction speed 2.7 X
     Track quality 100.0 %
     Test CRC 3B1A0DEC
     Copy CRC 3B1A0DEC
     Track not present in AccurateRip database
     Copy OK

Track  5

     Filename H:\MY EAC[.FLAC]\Tribute in Bossa to The Beatles\(5) Day Tripper - Tahta Menezes.flac

     Peak level 97.7 %
     Extraction speed 2.9 X
     Track quality 100.0 %
     Test CRC 2E4304DF
     Copy CRC 2E4304DF
     Track not present in AccurateRip database
     Copy OK

Track  6

     Filename H:\MY EAC[.FLAC]\Tribute in Bossa to The Beatles\(6) We Can Work It Out - Marcela Mangabeira.flac

     Peak level 100.0 %
     Extraction speed 2.6 X
     Track quality 100.0 %
     Test CRC A93B8455
     Copy CRC A93B8455
     Track not present in AccurateRip database
     Copy OK

Track  7

     Filename H:\MY EAC[.FLAC]\Tribute in Bossa to The Beatles\(7) Yesterday - Monique Kessous.flac

     Peak level 97.2 %
     Extraction speed 2.8 X
     Track quality 100.0 %
     Test CRC FE7E68A3
     Copy CRC FE7E68A3
     Track not present in AccurateRip database
     Copy OK

Track  8

     Filename H:\MY EAC[.FLAC]\Tribute in Bossa to The Beatles\(8) Penny Lane - Maria Augusta.flac

     Peak level 97.5 %
     Extraction speed 3.0 X
     Track quality 100.0 %
     Test CRC AC1E4E31
     Copy CRC AC1E4E31
     Track not present in AccurateRip database
     Copy OK

Track  9

     Filename H:\MY EAC[.FLAC]\Tribute in Bossa to The Beatles\(9) Hey Jude - Monique Kessous.flac

     Peak level 97.6 %
     Extraction speed 2.9 X
     Track quality 99.9 %
     Test CRC 9B70EFC5
     Copy CRC 9B70EFC5
     Track not present in AccurateRip database
     Copy OK

Track 10

     Filename H:\MY EAC[.FLAC]\Tribute in Bossa to The Beatles\(10) Eleanor Rigby - Eduardo Braga.flac

     Peak level 100.0 %
     Extraction speed 2.8 X
     Track quality 99.9 %
     Test CRC 1037994F
     Copy CRC 1037994F
     Track not present in AccurateRip database
     Copy OK

Track 11

     Filename H:\MY EAC[.FLAC]\Tribute in Bossa to The Beatles\(11) Can'T Buy Me Love - Tahta Menezes.flac

     Peak level 97.6 %
     Extraction speed 2.9 X
     Track quality 99.9 %
     Test CRC 0C872D34
     Copy CRC 0C872D34
     Track not present in AccurateRip database
     Copy OK

Track 12

     Filename H:\MY EAC[.FLAC]\Tribute in Bossa to The Beatles\(12) She Loves You - Monique Kessous.flac

     Peak level 97.7 %
     Extraction speed 3.4 X
     Track quality 100.0 %
     Test CRC DA1C3F30
     Copy CRC DA1C3F30
     Track not present in AccurateRip database
     Copy OK

Track 13

     Filename H:\MY EAC[.FLAC]\Tribute in Bossa to The Beatles\(13) Ticket To Ride - Taryn Szpilman.flac

     Peak level 100.0 %
     Extraction speed 3.4 X
     Track quality 100.0 %
     Test CRC 3A291E2B
     Copy CRC 3A291E2B
     Track not present in AccurateRip database
     Copy OK

Track 14

     Filename H:\MY EAC[.FLAC]\Tribute in Bossa to The Beatles\(14) Something - Cris Delanno.flac

     Peak level 100.0 %
     Extraction speed 3.6 X
     Track quality 100.0 %
     Test CRC 471DDF9D
     Copy CRC 471DDF9D
     Track not present in AccurateRip database
     Copy OK

Track 15

     Filename H:\MY EAC[.FLAC]\Tribute in Bossa to The Beatles\(15) Let It Be - Marcela Mangabeira.flac

     Peak level 97.1 %
     Extraction speed 2.6 X
     Track quality 99.8 %
     Test CRC B508816E
     Copy CRC B508816E
     Track not present in AccurateRip database
     Copy OK


None of the tracks are present in the AccurateRip database

No errors occurred

End of status report

==== Log checksum C26EDE80513EA5885C26B972A1807E667848871E6FB15270A4EB998AC9ACE4E6 ====
[/quote]

[img]image[/img]

[img]image[/img]
[/CENTER]
(1) Come Together - Monique Kessous - Various Artists.flac 26.647 MB
(10) Eleanor Rigby - Eduardo Braga - Various Artists.flac 18.305 MB
(11) Can'T Buy Me Love - Tahta Menezes - Various Artists.flac 19.959 MB
Gathering some info...

Register and log in Isohunt and see no captcha anymore!

4000 symbols left
Hash E70DA4E2AC9CC25AC0E553E17AE36E191EE0B7E0