imdb
rating

7.0
Thor

Thor (2011)

Action, Adventure, Fantasy

Full description
quality   dvdrip screener dvd telesync bd

Thor (2011) DVDRip FR Sub DVDRip XviD

Size 765.461 MB   0 seeders     Added 2012-05-26 02:54:47

Stream torrent
Starting‥ You need BitLord! Get it from 1BitLord.com
10
To download or stream you need BitLord. Visit them at BitLord.com
image\r\n\r\nGeneral\r\nComplete name                    : Thor.2011.720p.BDRip.XVID.AC3-DQ1.avi\r\nFormat                           : AVI\r\nFormat/Info                      : Audio Video Interleave\r\nFormat profile                   : OpenDML\r\nFile size                        : 3.00 GiB\r\nDuration                         : 1h 54mn\r\nOverall bit rate                 : 3 740 Kbps\r\nWriting library                  : VirtualDub build 30091/release\r\n\r\nVideo\r\nID                               : 0\r\nFormat                           : MPEG-4 Visual\r\nFormat profile                   : Advanced Simple@L5\r\nFormat settings, BVOP            : 2\r\nFormat settings, QPel            : No\r\nFormat settings, GMC             : No warppoints\r\nFormat settings, Matrix          : Default (H.263)\r\nCodec ID                         : XVID\r\nCodec ID/Hint                    : XviD\r\nDuration                         : 1h 54mn\r\nBit rate                         : 3 346 Kbps\r\nWidth                            : 1 280 pixels\r\nHeight                           : 544 pixels\r\nDisplay aspect ratio             : 2.35:1\r\nFrame rate                       : 23.976 fps\r\nColor space                      : YUV\r\nChroma subsampling               : 4:2:0\r\nBit depth                        : 8 bits\r\nScan type                        : Progressive\r\nCompression mode                 : Lossy\r\nBits/(Pixel*Frame)               : 0.200\r\nStream size                      : 2.68 GiB (89%)\r\nWriting library                  : XviD 1.2.1 (UTC 2008-12-04)\r\n\r\nAudio\r\nID                               : 1\r\nFormat                           : AC-3\r\nFormat/Info                      : Audio Coding 3\r\nMode extension                   : CM (complete main)\r\nCodec ID                         : 2000\r\nDuration                         : 1h 54mn\r\nBit rate mode                    : Constant\r\nBit rate                         : 384 Kbps\r\nChannel(s)                       : 6 channels\r\nChannel positions                : Front: L C R, Side: L R, LFE\r\nSampling rate                    : 48.0 KHz\r\nBit depth                        : 16 bits\r\nCompression mode                 : Lossy\r\nStream size                      : 315 MiB (10%)\r\nAlignment                        : Aligned on interleaves\r\nInterleave, duration             : 42 ms (1.00 video frame)\r\nInterleave, preload duration     : 512 ms
Lisez-moi.txt 255 B
Thor (2011) DVDRip.FR.Sub.DVDRip.XviD.rar 765.461 MB
Gathering some info...

Register and log in Isohunt and see no captcha anymore!

4000 symbols left
Hash A84068F9CD366B1672C228A535457CA235069102

Related torrents for "Thor (2011) DVDRip FR Sub DVDRip XviD"

Torrent search:

dvdrip 2011