imdb
rating

5.9
Battleship

Battleship (2012)

Action, Adventure, Science Fiction, Thriller

Full description

Battleship 2012 1080p BDRip x264 AAC-KiNGDOM

Size 997.515 MB   0 seeders     Added 2012-05-26 07:24:32

Stream torrent
Starting‥ You need BitLord! Get it from BitLord.com
To download or stream you need BitLord. Visit them at BitLord.com
Format                           : AVI
Format/Info                      : Audio Video Interleave
Format profile                   : OpenDML
File size                        : 1.68 GiB
Duration                         : 1h 57mn
Overall bit rate                 : 2 049 Kbps
Writing application              : VirtualDubMod 1.5.10.2 (build 2542/release)
Writing library                  : VirtualDubMod build 2542/release
Original source form             : MAX TORRENTZ
Copyright                        : SIGISMUNT



Video
ID                               : 0
Format                           : MPEG-4 Visual
Format profile                   : AdvancedSimple@L5
Format settings, BVOP            : Yes
Format settings, QPel            : No
Format settings, GMC             : No warppoints
Format settings, Matrix          : Custom
Codec ID                         : XVID
Codec ID/Hint                    : XviD
Duration                         : 1h 57mn
Bit rate                         : 1 862 Kbps
Width                            : 720 pixels
Height                           : 304 pixels
Display aspect ratio             : 2.35:1
Frame rate                       : 23.976 fps
Resolution                       : 24 bits
Colorimetry                      : 4:2:0
Scan type                        : Progressive
Bits/(Pixel*Frame)               : 0.355
Stream size                      : 1.52 GiB (91%)
Writing library                  : XviD 1.2.0.dev47 (UTC 2006-11-01)



Audio
ID                               : 1
Format                           : AC-3
Format/Info                      : Audio Coding 3
Codec ID                         : 2000
Duration                         : 1h 57mn
Bit rate mode                    : Constant
Bit rate                         : 192 Kbps
Channel(s)                       : 2 channels
Channel positions                : L R
Sampling rate                    : 48.0 KHz
Stream size                      : 152 MiB (9%)
Alignment                        : Aligned on interleaves
Interleave, duration             : 68 ms (1.62 video frames)
Interleave, preload duration     : 192 ms



Source: DVD (perfect a/v/sync good quality,sample included)
This torrent is not seedbox supported,please seed it,
Battleship 2012 1080p BDRip x264 AAC-KiNGDOM/Battleship 2012 1080p BDRip x264 AAC-KiNGDOM.avi 995.997 MB
Battleship 2012 1080p BDRip x264 AAC-KiNGDOM/ExtraTorrentRG.mp4 1.515 MB
Battleship 2012 1080p BDRip x264 AAC-KiNGDOM/MPP-ETRG.nfo 2.875 KB
Gathering some info...

Register and log in Isohunt and see no captcha anymore!

4000 symbols left
Hash 0f73ee89ad21cad6109464eca5f47cd50d796508

Related torrents for "Battleship 2012 1080p BDRip x264 AAC-KiNGDOM"

Torrent search:

x264 2012 fullhd bd