Battlefield

Battlefield (1994)

History, Military/War, Politics

Full description

Battlefield America (2012) iTALiAN MD BDRip XviD-FREE

Size 1.063 GB   0 seeders     Added 2012-05-26 16:22:56

Stream torrent
Starting‥ You need BitLord! Get it from BitLord.com
To download or stream you need BitLord. Visit them at BitLord.com
Battlefield America (2012)

Format                           : AVI
Format/Info                      : Audio Video Interleave
Format profile                   : OpenDML
File size                        : 1013 MiB
Duration                         : 1h 49mn
Overall bit rate                 : 1 714 Kbps
Writing application              : VirtualDubMod 1.5.10.2 (build 2542/release)
Writing library                  : VirtualDubMod build 2542/release
Original source form             : MAX TORRENTZ

Video
ID                               : 0
Format                           : MPEG-4 Visual
Format profile                   : AdvancedSimple@L5
Format settings, BVOP            : Yes
Format settings, QPel            : No
Format settings, GMC             : No warppoints
Format settings, Matrix          : Default (H.263)
Codec ID                         : XVID
Codec ID/Hint                    : XviD
Duration                         : 1h 49mn
Bit rate                         : 1 325 Kbps
Width                            : 640 pixels
Height                           : 272 pixels
Display aspect ratio             : 2.35:1
Frame rate                       : 23.976 fps
Resolution                       : 24 bits
Colorimetry                      : 4:2:0
Scan type                        : Progressive
Bits/(Pixel*Frame)               : 0.318
Stream size                      : 1013 MiB (77%)
Writing library                  : XviD 61

Audio
ID                               : 1
Format                           : AC-3
Format/Info                      : Audio Coding 3
Codec ID                         : 2000
Duration                         : 1h 49mn
Bit rate mode                    : Constant
Bit rate                         : 384 Kbps
Channel(s)                       : 6 channels
Channel positions                : Front: L C R, Surround: L R, LFE
Sampling rate                    : 48.0 KHz
Stream size                      : 147 MiB (22%)
Alignment                        : Aligned on interleaves
Interleave, duration             : 64 ms (1.54 video frames)
Interleave, preload duration     : 192 ms



http://www.imdb.com/title/tt1995260/


Source: DVD (perfect a/v/sync quality+filtered audio with additional 400% volume , sample is included)

How To Get Your Maxspeed (uTorrent)

Torrent Client - Preferences - Bandwidth - Number of connections - Set aprox. 500 for each 
Torrent Client - Preferences - BiTorrent - Protocol Encryption - Forced
Bandwidth Allocation - High (Set download/upload limit - Unlimited)
Stop Other Active Torrents - Start downloading and wait for connections.
Enjoy and Seed for at least 1:1 ratio. Don't forget to say thanks/leave reviews.
Before downloading you should check/google search sample "release name""sample".
Greets to all actual/future p2p/scene QUALITY groups and affiliate websites.
Don't trust IMDb robot or bad ratings,always watch some trailers first.
Ignore stupid comments/fake/mislabeled/no-DVDrips/CAM/TS/RAR uploads.
Please spread this release/torrent to your friends/forums/etc.
If you need translation subs visit some subtitles sites.
Report if you see online streaming or other spam links.
Recommended movie player VLC PLAYER.

Battlefield America (2012) iTALiAN MD BDRip XviD-FREE/Battlefield America (2012) iTALiAN MD BDRip XviD-FREE.avi 1.008 GB
Battlefield America (2012) iTALiAN MD BDRip XviD-FREE/Release.nfo 10.131 KB
Battlefield America (2012) iTALiAN MD BDRip XviD-FREE/Subs[ENG].srt 136.693 KB
Gathering some info...

Register and log in Isohunt and see no captcha anymore!

4000 symbols left
Hash e766f39593ef16742343dab112ccf459bd7e22d4

Related torrents for "Battlefield America (2012) iTALiAN MD BDRip XviD-FREE"

Torrent search:

italian 2012 bd