imdb
rating

7.2
The Muppets

The Muppets (2011)

Comedy, Music, Family

Full description

The Muppets 2011 DVD9rip English Dutch Klam

Size 2.122 GB   5 seeders     Added 2012-05-27 02:49:18

Stream torrent
Starting‥ You need BitLord! Get it from BitLord.com
To download or stream you need BitLord. Visit them at BitLord.com
[img] image[/img]

With: Jason Segel, Amy Adams and Chris Cooper

Nederlands of Engels gesproken,
Walter is een lieve, lichtjes naïeve twintiger die de kamergenoot en beste vriend is van Gary (Jason Segel). Ze zijn allebei fan van The Muppets, al is dat voor Walter een beetje vreemd omdat hij zelf een pop is. Toch is het zijn grootste droom om ooit eens een keertje zijn bekende soortgenoten te ontmoeten. Wanneer de twee vrienden ontdekken dat het Muppet Theater in gevaar is, trekken ze eropuit om Kermit, Miss Piggy en alle anderen weer bij elkaar te brengen om een geweldige show op poten te zetten.

English or dutch spoken,
With the help of three fans, The Muppets must reunite to save their old theater from a greedy oil tycoon.

http://www.imdb.com/title/tt1204342
[COLOR=#3300FF]
------------------------ Dutch Friends ------------------------
---------------------------------------------------------------
- Bezoek ook eens mijn vrienden op:  http://www.Film-Test.nl --
----- voor mijn Nederlandse Sync. ondertitels ---- en meer ----
------- http://www.Film-Test.nl ---- voor Films en meer -------
---------------------------------------------------------------[/COLOR]

General:

Complete name                    : The Muppets\The Muppets.avi
Format                           : AVI
Format/Info                      : Audio Video Interleave
File size                        : 1.98 GiB
Duration                         : 1h 38mn
Overall bit rate                 : 2 872 Kbps

Video:

Format                           : MPEG-4 Visual
Format profile                   : Simple@L3
Format settings, BVOP            : No
Format settings, QPel            : No
Format settings, GMC             : No warppoints
Format settings, Matrix          : Default (H.263)
Codec ID                         : XVID
Codec ID/Hint                    : XviD
Duration                         : 1h 38mn
Bit rate                         : 2 087 Kbps
Width                            : 652 pixels
Height                           : 352 pixels
Display aspect ratio             : 1.852
Frame rate                       : 25.000 fps
Color space                      : YUV
Chroma subsampling               : 4:2:0
Bit depth                        : 8 bits
Scan type                        : Progressive
Compression mode                 : Lossy
Bits/(Pixel*Frame)               : 0.364
Stream size                      : 1.44 GiB (73%)
Writing library                  : XviD 1.1.2 (UTC 2006-11-01)

Audio's:

Format                           : AC-3
Format/Info                      : Audio Coding 3
Mode extension                   : CM (complete main)
Codec ID                         : 2000
Duration                         : 1h 38mn
Bit rate mode                    : Constant
Bit rate                         : 384 Kbps
Channel(s)                       : 6 channels
Channel positions                : Front: L C R, Side: L R, LFE
Sampling rate                    : 48.0 KHz
Bit depth                        : 16 bits
Compression mode                 : Lossy
Stream size                      : 271 MiB (13%)
Alignment                        : Aligned on interleaves
Interleave, duration             : 32 ms (0.80 video frame)
Interleave, preload duration     : 160 ms
Language                         : English, Dutch
The Muppets.avi 2.122 GB
Cover/The Muppets.jpg 143.791 KB
www.Film-Test.nl.JPG 34.175 KB
Gathering some info...

Register and log in Isohunt and see no captcha anymore!

4000 symbols left
Hash BE688FBFBCDC22BA3D8C13E0EA94365B09FB186A

Related torrents for "The Muppets 2011 DVD9rip English Dutch Klam"

Torrent search:

english german 2011