Bob Tostes - Tribute in Bossa to Frank Sinatra

Size 227.074 MB   15 seeders     Added 2012-05-30 01:34:49

Stream torrent
Starting‚Ä• You need BitLord! Get it from 1BitLord.com
10
To download or stream you need BitLord. Visit them at BitLord.com
[CENTER][img]image[/img]

[img]image[/img]

[img]image[/img]

[img]image[/img]

[b]Artist: Bob Toster
Title Of Album: Tribute in Bossa to "Frank Sinatra"
Etichetta: Albatros 
Pubblicazione: CD 2010
Genre: Bossa/Jazz
Source: CD
Playing Time: 37.43
Total Size: 216,31 MB
Quality: FLAC+Cue+Log+Info+Cover[Front + Back + CD]
Bitrate: Lossless
[/b]

[img]image[/img]

[b]
1 Strangers in the Night 3:49
2 I've Got You Under My Skin 4:07
3 The Lady is a Tramp 3:19
4 Blue Moon 3:10
5 My Way (Comme D'Habitude) 3:47
6 Fly Me Too the Moon 2:33
7 Call Me Irresponsible 3:14
8 It Had to Be You 2:39
9 Just in Time 2:58
10 All the Way 2:42
11 Easy to Love 2:54
12 That Old Black Magic 2:27
[/b]

[img]image[/img]

[b]FRANK SINATRA Tribute To Bossa To... (2010 UK 12-track CD album - Halidon and Mediane are pleased to present an elegant collection of Frank Sinatra masterpieces, revisited in a Bossanova style, performed by Bob Tostes. Includes versions of 'Strangers In The Night', 'I've Got You Under My Skin', 'Blue Moon', 'My Way', 'It Had To Be You', 'Call Me Irresponsible' and more...).  
[/b]

[img]image[/img]

[quote]Exact Audio Copy V1.0 beta 3 from 29. August 2011

EAC extraction logfile from 28. May 2012, 9:31

Bob Tostes / Tribute in Bossa to Frank Sinatra

Used drive  : HL-DT-STDVDRAM GSA-T40N   Adapter: 0  ID: 0

Read mode               : Secure
Utilize accurate stream : Yes
Defeat audio cache      : Yes
Make use of C2 pointers : No

Read offset correction                      : 667
Overread into Lead-In and Lead-Out          : No
Fill up missing offset samples with silence : Yes
Delete leading and trailing silent blocks   : No
Null samples used in CRC calculations       : Yes
Used interface                              : Native Win32 interface for Win NT & 2000
Gap handling                                : Appended to previous track

Used output format              : User Defined Encoder
Selected bitrate                : 896 kBit/s
Quality                         : High
Add ID3 tag                     : No
Command line compressor         : C:\Program Files\Exact Audio Copy\FLAC\FLAC.EXE
Additional command line options : -8 -V -T "ARTIST=%artist%" -T "TITLE=%title%" -T "ALBUM=%albumtitle%" -T "DATE=%year%" -T "TRACKNUMBER=%tracknr%" -T "GENRE=%genre%" -T "COMMENT=%comment%" -T "BAND=%albuminterpret%" -T "ALBUMARTIST=%albuminterpret%" -T "COMPOSER=%composer%" %haslyrics%--tag-from-file=LYRICS="%lyricsfile%"%haslyrics% -T "DISCNUMBER=%cdnumber%" -T "TOTALDISCS=%totalcds%" -T "TOTALTRACKS=%numtracks%" %hascover%--picture="%coverfile%"%hascover% %source% -o %dest%


TOC of the extracted CD

     Track |   Start  |  Length  | Start sector | End sector 
    ---------------------------------------------------------
        1  |  0:00.00 |  3:49.55 |         0    |    17229   
        2  |  3:49.55 |  4:07.20 |     17230    |    35774   
        3  |  7:57.00 |  3:19.32 |     35775    |    50731   
        4  | 11:16.32 |  3:10.56 |     50732    |    65037   
        5  | 14:27.13 |  3:47.04 |     65038    |    82066   
        6  | 18:14.17 |  2:33.11 |     82067    |    93552   
        7  | 20:47.28 |  3:14.33 |     93553    |   108135   
        8  | 24:01.61 |  2:39.20 |    108136    |   120080   
        9  | 26:41.06 |  2:58.54 |    120081    |   133484   
       10  | 29:39.60 |  2:42.06 |    133485    |   145640   
       11  | 32:21.66 |  2:54.18 |    145641    |   158708   
       12  | 35:16.09 |  2:27.26 |    158709    |   169759   


Track  1

     Filename H:\MY EAC[.FLAC]\Bob Tostes - Tribute in Bossa to Frank Sinatra\(1) Strangers in the Night - Bob Tostes.flac

     Pre-gap length  0:00:02.00

     Peak level 99.5 %
     Extraction speed 1.7 X
     Track quality 99.9 %
     Test CRC D714F54B
     Copy CRC D714F54B
     Track not present in AccurateRip database
     Copy OK

Track  2

     Filename H:\MY EAC[.FLAC]\Bob Tostes - Tribute in Bossa to Frank Sinatra\(2) I've Got You Under My Skin - Bob Tostes.flac

     Pre-gap length  0:00:02.00

     Peak level 100.0 %
     Extraction speed 2.3 X
     Track quality 100.0 %
     Test CRC CAB94AA6
     Copy CRC CAB94AA6
     Track not present in AccurateRip database
     Copy OK

Track  3

     Filename H:\MY EAC[.FLAC]\Bob Tostes - Tribute in Bossa to Frank Sinatra\(3) The Lady is a Tramp - Bob Tostes.flac

     Pre-gap length  0:00:02.00

     Peak level 100.0 %
     Extraction speed 2.5 X
     Track quality 100.0 %
     Test CRC 48920D96
     Copy CRC 48920D96
     Track not present in AccurateRip database
     Copy OK

Track  4

     Filename H:\MY EAC[.FLAC]\Bob Tostes - Tribute in Bossa to Frank Sinatra\(4) Blue Moon - Bob Tostes.flac

     Pre-gap length  0:00:02.00

     Peak level 90.6 %
     Extraction speed 2.6 X
     Track quality 100.0 %
     Test CRC 28FA1CF3
     Copy CRC 28FA1CF3
     Track not present in AccurateRip database
     Copy OK

Track  5

     Filename H:\MY EAC[.FLAC]\Bob Tostes - Tribute in Bossa to Frank Sinatra\(5) My Way (Comme D'Habitude) - Bob Tostes.flac

     Pre-gap length  0:00:02.00

     Peak level 100.0 %
     Extraction speed 2.5 X
     Track quality 99.9 %
     Test CRC 5E6006DF
     Copy CRC 5E6006DF
     Track not present in AccurateRip database
     Copy OK

Track  6

     Filename H:\MY EAC[.FLAC]\Bob Tostes - Tribute in Bossa to Frank Sinatra\(6) Fly Me Too the Moon - Bob Tostes.flac

     Pre-gap length  0:00:02.00

     Peak level 100.0 %
     Extraction speed 2.8 X
     Track quality 100.0 %
     Test CRC 2D9FD1D0
     Copy CRC 2D9FD1D0
     Track not present in AccurateRip database
     Copy OK

Track  7

     Filename H:\MY EAC[.FLAC]\Bob Tostes - Tribute in Bossa to Frank Sinatra\(7) Call Me Irresponsible - Bob Tostes.flac

     Pre-gap length  0:00:02.00

     Peak level 100.0 %
     Extraction speed 1.6 X
     Track quality 100.0 %
     Test CRC FC1D7EE7
     Copy CRC FC1D7EE7
     Track not present in AccurateRip database
     Copy OK

Track  8

     Filename H:\MY EAC[.FLAC]\Bob Tostes - Tribute in Bossa to Frank Sinatra\(8) It Had to Be You - Bob Tostes.flac

     Pre-gap length  0:00:02.00

     Peak level 100.0 %
     Extraction speed 1.6 X
     Track quality 100.0 %
     Test CRC 7BF7E7F1
     Copy CRC 7BF7E7F1
     Track not present in AccurateRip database
     Copy OK

Track  9

     Filename H:\MY EAC[.FLAC]\Bob Tostes - Tribute in Bossa to Frank Sinatra\(9) Just in Time - Bob Tostes.flac

     Pre-gap length  0:00:02.00

     Peak level 100.0 %
     Extraction speed 1.7 X
     Track quality 100.0 %
     Test CRC A3B7A1E3
     Copy CRC A3B7A1E3
     Track not present in AccurateRip database
     Copy OK

Track 10

     Filename H:\MY EAC[.FLAC]\Bob Tostes - Tribute in Bossa to Frank Sinatra\(10) All the Way - Bob Tostes.flac

     Pre-gap length  0:00:02.00

     Peak level 98.6 %
     Extraction speed 1.7 X
     Track quality 100.0 %
     Test CRC 26E162DD
     Copy CRC 26E162DD
     Track not present in AccurateRip database
     Copy OK

Track 11

     Filename H:\MY EAC[.FLAC]\Bob Tostes - Tribute in Bossa to Frank Sinatra\(11) Easy to Love - Bob Tostes.flac

     Pre-gap length  0:00:02.00

     Peak level 91.9 %
     Extraction speed 1.8 X
     Track quality 100.0 %
     Test CRC 4B594F49
     Copy CRC 4B594F49
     Track not present in AccurateRip database
     Copy OK

Track 12

     Filename H:\MY EAC[.FLAC]\Bob Tostes - Tribute in Bossa to Frank Sinatra\(12) That Old Black Magic - Bob Tostes.flac

     Pre-gap length  0:00:02.00

     Peak level 100.0 %
     Extraction speed 1.8 X
     Track quality 100.0 %
     Test CRC 701E4BC3
     Copy CRC 701E4BC3
     Track not present in AccurateRip database
     Copy OK


None of the tracks are present in the AccurateRip database

No errors occurred

End of status report

==== Log checksum B6FCE08CF604554D230FA70CC357447D89584C02F915A038E06EF6ADA08E3B6E ====
[/quote]

[img]image[/img]

[img]image[/img][/CENTER]
(1) Strangers in the Night - Bob Tostes.flac 22.631 MB
(10) All the Way - Bob Tostes.flac 16.077 MB
(11) Easy to Love - Bob Tostes.flac 16.741 MB
Gathering some info...

Register and log in Isohunt and see no captcha anymore!

4000 symbols left
Hash 0806486777CCBA4BC0A8A0E8DF767BE69938167C