imdb
rating

5.1
Territories

Territories (2010)

Horror, Thriller

Full description
quality   dvdrip x264 hd bd dvdr fullhd

Territories 2010 DVD9rip English Klam

Size 1.824 GB   0 seeders     Added 2012-05-30 02:49:34

Stream torrent
Starting‥ You need BitLord! Get it from 1BitLord.com
10
To download or stream you need BitLord. Visit them at BitLord.com
[img] image[/img]\r\n\r\nWith: Roc LaFortune, Sean Devine and Nicole Leroux\r\n\r\nCanada, nabij de grens met Amerika. Jalil, Michelle, Gab, Leslie en Tom rijden terug naar huis van een bruiloft en naderen de Amerikaanse grens. Een auto van de grenspolitie blokkeert de weg en dwingt hen te stoppen. De vrienden moeten hun identiteitspapieren laten zien en de uitdrukkingen op de gezichten van de grenspolitie beloven niet veel goeds. Vooral de afkomst van Jalil lijkt hen dwars te zitten. De vrienden proberen kalm te blijven; ze hebben immers niks verkeerd gedaan. De auto wordt onderzocht en ze treffen een kapot licht en een zak marihuana aan. Leslie probeert Toms medicijnen uit de auto te pakken maar wordt tegengehouden en snel daarna worden ze allemaal geboeid. Leslie protesteert en wordt op een vervelende manier gefouilleerd. De zaken beginnen volledig uit de hand te lopen...\r\n\r\nFive friends return home from a marriage in Canada to the United States. Not far from the border, two customs officers stop them to check their identity. \r\n\r\nhttp://www.imdb.com/title/tt1683970\r\n\r\n[COLOR=#3300FF]------------------------ Dutch Friends ------------------------\r\n---------------------------------------------------------------\r\n- Bezoek ook eens mijn vrienden op:  http://www.Film-Test.nl --\r\n----- voor mijn Nederlandse Sync. ondertitels ---- en meer ----\r\n------- http://www.Film-Test.nl ---- voor Films en meer -------\r\n---------------------------------------------------------------[/COLOR]\r\n\r\nGeneral:\r\n\r\nComplete name                    : Territories\\Territories.avi\r\nFormat                           : AVI\r\nFormat/Info                      : Audio Video Interleave\r\nFile size                        : 1.70 GiB\r\nDuration                         : 1h 31mn\r\nOverall bit rate                 : 2 658 Kbps\r\n\r\nVideo:\r\n\r\nFormat                           : MPEG-4 Visual\r\nFormat profile                   : Simple@L3\r\nFormat settings, BVOP            : No\r\nFormat settings, QPel            : No\r\nFormat settings, GMC             : No warppoints\r\nFormat settings, Matrix          : Default (H.263)\r\nCodec ID                         : XVID\r\nCodec ID/Hint                    : XviD\r\nDuration                         : 1h 31mn\r\nBit rate                         : 2 199 Kbps\r\nWidth                            : 652 pixels\r\nHeight                           : 352 pixels\r\nDisplay aspect ratio             : 1.852\r\nFrame rate                       : 25.000 fps\r\nColor space                      : YUV\r\nChroma subsampling               : 4:2:0\r\nBit depth                        : 8 bits\r\nScan type                        : Progressive\r\nCompression mode                 : Lossy\r\nBits/(Pixel*Frame)               : 0.383\r\nStream size                      : 1.41 GiB (83%)\r\nWriting library                  : XviD 1.1.2 (UTC 2006-11-01)\r\n\r\nAudio:\r\n\r\nFormat                           : AC-3\r\nFormat/Info                      : Audio Coding 3\r\nMode extension                   : CM (complete main)\r\nCodec ID                         : 2000\r\nDuration                         : 1h 31mn\r\nBit rate mode                    : Constant\r\nBit rate                         : 448 Kbps\r\nChannel(s)                       : 6 channels\r\nChannel positions                : Front: L C R, Side: L R, LFE\r\nSampling rate                    : 48.0 KHz\r\nBit depth                        : 16 bits\r\nCompression mode                 : Lossy\r\nStream size                      : 293 MiB (17%)\r\nAlignment                        : Aligned on interleaves\r\nInterleave, duration             : 32 ms (0.80 video frame)\r\nInterleave, preload duration     : 448 ms
Cover/Territories.jpg 60.101 KB
Cover/www.Film-Test.nl.JPG 34.175 KB
New Dutch Site.txt 117 B
Gathering some info...

Register and log in Isohunt and see no captcha anymore!

4000 symbols left
Hash 6A01C8660AA381AD3584734A158049577E14B98A

Related torrents for "Territories 2010 DVD9rip English Klam"

Torrent search:

english 2010