imdb
rating

2.6
Battlefield America

Battlefield America (2012)

Drama, Music

Full description
quality   dvdrip telesync hd x264 bd

Battlefield America (2012) DVDRip XviD

Size 940.944 MB   0 seeders     Added 2012-05-30 11:42:58

Stream torrent
Starting‥ You need BitLord! Get it from 1BitLord.com
To download or stream you need BitLord. Visit them at BitLord.com
Complete name : Battlefield America (2012) DVDRip XviD\r\nFormat : AVI\r\nFormat/Info : Audio Video Interleave\r\nFile size : 317 MiB\r\nDuration : 1h 28mn\r\nOverall bit rate mode : Variable\r\nOverall bit rate : 498 Kbps\r\nWriting application : Nandub v1.0rc2\r\nWriting library : Nandub build 1852/release\r\n\r\nVideo\r\nID : 0\r\nFormat : MPEG-4 Visual\r\nFormat profile : Advanced Simple@L5\r\nFormat settings, BVOP : 1\r\nFormat settings, QPel : No\r\nFormat settings, GMC : No warppoints\r\nFormat settings, Matrix : Default (H.263)\r\nCodec ID : XVID\r\nCodec ID/Hint : XviD\r\nDuration : 1h 28mn\r\nBit rate : 342 Kbps\r\nWidth : 640 pixels\r\nHeight : 272 pixels\r\nDisplay aspect ratio : 2.35:1\r\nFrame rate : 25.000 fps\r\nColor space : YUV\r\nChroma subsampling : 4:2:0\r\nBit depth : 8 bits\r\nScan type : Progressive\r\nCompression mode : Lossy\r\nBits/(Pixel*Frame) : 0.079\r\nStream size : 217 MiB (69%)\r\nWriting library : XviD 1.2.1 (UTC 2008-12-04)\r\n\r\nAudio\r\nID : 1\r\nFormat : MPEG Audio\r\nFormat version : Version 1\r\nFormat profile : Layer 3\r\nMode : Joint stereo\r\nMode extension : MS Stereo\r\nCodec ID : 55\r\nCodec ID/Hint : MP3\r\nDuration : 1h 28mn\r\nBit rate mode : Variable\r\nBit rate : 128 Kbps\r\nChannel(s) : 2 channels\r\nSampling rate : 48.0 KHz\r\nCompression mode : Lossy\r\nStream size : 81.2 MiB (26%)\r\nAlignment : Aligned on interleaves\r\nWriting library : LAME3.90.\r\nEncoding settings : -m j -V 4 -q 2 -lowpass 17.6 --abr 128
Battlefield America (2012) DVDRip XviD/Battlefield America (2012) DVDRip XviD.avi 939.374 MB
Battlefield America (2012) DVDRip XviD/ExtraTorrentRG.mp4 1.515 MB
Battlefield America (2012) DVDRip XviD/Extratorrent.info.png 51.713 KB
Gathering some info...

Register and log in Isohunt and see no captcha anymore!

4000 symbols left
Hash d2994181215d0039d9be99adb6b7c589bfdc9c67

Related torrents for "Battlefield America (2012) DVDRip XviD"

Torrent search:

dvdrip 2012