imdb
rating

5.8
Journey 2: The Mysterious Island

Journey 2: The Mysterious Island (2012)

Action, Adventure, Science Fiction

Full description
quality   cam dvdrip bd screener

Journey 2 The Mysterious Island[2012]ENG[BRRip]XviD-{RedDragon}

Size 785.054 MB   0 seeders     Added 2012-06-01 20:42:56

Stream torrent
Starting‥ You need BitLord! Get it from BitLord.com
10
To download or stream you need BitLord. Visit them at BitLord.com
[b][img]image[/img]

General.

Complete name                    : Journey 2 The Mysterious Island[2012]ENG[BRRip]XviD-{RedDragon}.mp4
Format                           : MPEG-4
Format profile                   : Base Media / Version 2
Codec ID                         : mp42
File size                        : 749 MiB
Duration                         : 1h 34mn
Overall bit rate                 : 1,111 Kbps
IMDB Rating                      : 5.8/10
IMDB Link                        : http://www.imdb.com/title/tt1397514/


Video.

ID                               : 1
Format                           : MPEG-4 Visual
Format profile                   : Simple@L1
Format settings, BVOP            : No
Format settings, QPel            : No
Format settings, GMC             : No warppoints
Format settings, Matrix          : Default (H.263)
Codec ID                         : 20
Duration                         : 1h 34mn
Bit rate mode                    : Variable
Bit rate                         : 948 Kbps
Maximum bit rate                 : 6 313 Kbps
Width                            : 640 pixels
Height                           : 352 pixels
Display aspect ratio             : 16:9
Frame rate mode                  : Variable
Frame rate                       : 23.976 fps
Minimum frame rate               : 23.974 fps
Maximum frame rate               : 23.981 fps
Color space                      : YUV
Chroma subsampling               : 4:2:0
Bit depth                        : 8 bits
Scan type                        : Progressive
Bits/(Pixel*Frame)               : 0.175
Stream size                      : 638 MiB (85%)
Writing library                  : Lavc52.94.3
Encoded date                     : UTC 2012-06-01 05:03:15
Tagged date                      : UTC 2012-06-01 05:10:23


Audio.

ID                               : 2
Format                           : AAC
Format/Info                      : Advanced Audio Codec
Format version                   : Version 4
Format profile                   : LC
Format settings, SBR             : No
Codec ID                         : 40
Duration                         : 1h 34mn
Bit rate mode                    : Variable
Bit rate                         : 160 Kbps
Maximum bit rate                 : 181 Kbps
Channel(s)                       : 2 channels
Channel positions                : Front: L R
Sampling rate                    : 48.0 KHz
Stream size                      : 108 MiB (14%)
Encoded date                     : UTC 2012-06-01 05:03:15
Tagged date                      : UTC 2012-06-01 05:10:23[/b]
Journey 2 The Mysterious Island[2012]ENG[BRRip]XviD-{RedDragon}/Facebook Fan Page .txt 169 B
Journey 2 The Mysterious Island[2012]ENG[BRRip]XviD-{RedDragon}/Journey 2 The Mysterious Island[2012]ENG[BRRip]XviD-{RedDragon}.mp4 785.049 MB
Journey 2 The Mysterious Island[2012]ENG[BRRip]XviD-{RedDragon}/Read Me First .txt 205 B
Gathering some info...

Register and log in Isohunt and see no captcha anymore!

4000 symbols left
Hash 563799a5b301973919802c29344ae553c9983744

Related torrents for "Journey 2 The Mysterious Island[2012]ENG[BRRip]XviD-{RedDragon}"

Torrent search:

english 2012 bd