imdb
rating

3.7
Axed

Axed (2012)

Thriller

Full description
quality   bd dvdrip h264 dvdr hd

Axed 2012 BRRip XviD-ViP3R

Size 748.967 MB   22 seeders     Added 2012-06-02 01:32:55

Stream torrent
Starting‥ You need BitLord! Get it from 1BitLord.com
To download or stream you need BitLord. Visit them at BitLord.com
[img]image[/img]

General
Complete name                            : C:\Users\kyleaiden\Desktop\Axed.2012.BRRip.XviD-ViP3R\Axed.2012.BRRip.XviD-ViP3R.avi
Format                                   : AVI
Format/Info                              : Audio Video Interleave
File size                                : 269 MiB
Duration                                 : 1h 27mn
Overall bit rate mode                    : Variable
Overall bit rate                         : 430 Kbps
Writing application                      : VirtualDubMod 1.5.4.1 (build 2178/release)
Writing library                          : VirtualDubMod build 2178/release

Video
ID                                       : 0
Format                                   : MPEG-4 Visual
Format profile                           : Advanced Simple@L5
Format settings, BVOP                    : No
Format settings, QPel                    : No
Format settings, GMC                     : No warppoints
Format settings, Matrix                  : Custom
Codec ID                                 : XVID
Codec ID/Hint                            : XviD
Duration                                 : 1h 27mn
Bit rate                                 : 289 Kbps
Width                                    : 640 pixels
Height                                   : 272 pixels
Display aspect ratio                     : 2.35:1
Frame rate                               : 25.000 fps
Color space                              : YUV
Chroma subsampling                       : 4:2:0
Bit depth                                : 8 bits
Scan type                                : Progressive
Compression mode                         : Lossy
Bits/(Pixel*Frame)                       : 0.066
Stream size                              : 181 MiB (67%)
Writing library                          : XviD 1.2.1 (UTC 2008-12-04)

Audio
ID                                       : 1
Format                                   : MPEG Audio
Format version                           : Version 1
Format profile                           : Layer 3
Mode                                     : Joint stereo
Mode extension                           : MS Stereo
Codec ID                                 : 55
Codec ID/Hint                            : MP3
Duration                                 : 1h 27mn
Bit rate mode                            : Variable
Bit rate                                 : 115 Kbps
Nominal bit rate                         : 128 Kbps
Channel(s)                               : 2 channels
Sampling rate                            : 48.0 KHz
Compression mode                         : Lossy
Stream size                              : 72.0 MiB (27%)
Alignment                                : Aligned on interleaves
Writing library                          : LAME3.98r
Encoding settings                        : -m j -V 4 -q 2 -lowpass 17 --abr 128
Language                                 : English

Plot: A strict father loosens up enough to let his children take a day off school for a trip to the countryside. But things turn darker when the family realize he is planning to make it their last outing ever

[img]image[/img]
[img]image[/img]
[img]image[/img]
[img]image[/img]
Axed.2012.BRRip.XviD-ViP3R(Sample).avi 14.851 MB
Axed.2012.BRRip.XviD-ViP3R.avi 734.114 MB
Axed.2012.BRRip.XviD-ViP3R.nfo 2.137 KB
Gathering some info...

Register and log in Isohunt and see no captcha anymore!

4000 symbols left
Hash 80C7784D267427FFEFD76DB4A25400DB86FBDBCF

Related torrents for "Axed 2012 BRRip XviD-ViP3R"

Torrent search:

2012 bd