imdb
rating

3.8
Piranha 3DD

Piranha 3DD (2012)

Comedy, Horror, Thriller

Full description

Piranha 3DD 2012 HDRIP XVID-DQ1

Size 937.156 MB   473 seeders     Added 2012-06-03 01:30:40

Stream torrent
Starting‥ You need BitLord! Get it from BitLord.com
9.1
To download or stream you need BitLord. Visit them at BitLord.com
[img]image[/img]

Piranha.3DD.2012.HDRIP.XVID-DQ1

http://www.imdb.com/title/tt1714203/

Plot:
After the events at Lake Victoria, the pre-historic school of blood-thirsty piranhas make their way into a newly opened waterpark.


Video
ID                                       : 0
Format                                   : xvid
Codec ID                                 : xvid
Duration                                 : 1h 22mn
Bit rate                                 : 1 434 Kbps
Width                                    : 720 pixels
Height                                   : 380 pixels
Display aspect ratio                     : 1.895
Frame rate                               : 25.000 fps
Bits/(Pixel*Frame)                       : 0.210
Stream size                              : 848 MiB (95%)

Audio
ID                                       : 1
Format                                   : MPEG Audio
Format version                           : Version 2
Format profile                           : Layer 3
Mode                                     : Joint stereo
Mode extension                           : MS Stereo
Codec ID                                 : 55
Codec ID/Hint                            : MP3
Duration                                 : 1h 22mn
Bit rate mode                            : Constant
Bit rate                                 : 64.0 Kbps
Channel(s)                               : 2 channels
Sampling rate                            : 22.05 KHz
Compression mode                         : Lossy
Stream size                              : 37.9 MiB (4%)
Alignment                                : Aligned on interleaves
Interleave, duration                     : 26 ms (0.65 video frame)
Interleave, preload duration             : 522 ms
Writing library                          : LAME3.98.4

[img]image[/img]
[img]image[/img]
[img]image[/img]
Piranha.3DD.2012.HDRIP.XVID-DQ1.avi 937.152 MB
Piranha.3DD.2012.HDRIP.XVID-DQ1.nfo 2.973 KB
Torrent downloaded from AhaShare.com.txt 59 B
Gathering some info...

Register and log in Isohunt and see no captcha anymore!

4000 symbols left
Hash DE58ED268E512ACB921AFABF1EBA3EF76ED13799

Related torrents for "Piranha 3DD 2012 HDRIP XVID-DQ1"

Torrent search:

hd 2012