Men In Black 3 2D 2012 BRRip XviD-ETRG

Size 1.701 GB   0 seeders     Added 2012-06-04 02:51:59

Stream torrent
Starting‚Ä• You need BitLord! Get it from BitLord.com
To download or stream you need BitLord. Visit them at BitLord.com
[IMG]image[/IMG]\r\nScreens\r\n[IMG]image[/IMG]\r\n[IMG]image[/IMG]\r\n[IMG]image[/IMG]\r\nSource: Bluray\r\nVideo: 720x304 @bitrate 1700 2pass\r\nAudio: English DTS to AC3 5.1 @448\r\nSubs: No\r\nMovie info\r\nGENRE.........: Action | Comedy | Sci-Fi\r\nIMDB RATING...: 7.2/10 (13,685 votes)\r\nLINK..........: http://www.imdb.com/title/tt1409024/\r\nGeneral\r\nFormat                         : MKV\r\nFormat/Info                    : Audio Video Interleave\r\nFile size                      : 1.67 GiB\r\nDuration                       : 1h 54mn\r\nOverall bit rate               : 2 157 Kbps\r\nWriting application            : Nandub v1.0rc2\r\nWriting library                : Nandub build 1853/release\r\nVideo\r\nID                             : 0\r\nFormat                         : MPEG-4 Visual\r\nFormat profile                 : Advanced Simple@L5\r\nFormat settings, BVOP          : 1\r\nFormat settings, QPel          : Yes\r\nFormat settings, GMC           : No warppoints\r\nFormat settings, Matrix        : Default (H.263)\r\nMuxing mode                    : Packed bitstream\r\nCodec ID                       : MKV\r\nCodec ID/Hint                  : MKV\r\nDuration                       : 1h 54mn\r\nBit rate                       : 1 700 Kbps\r\nWidth                          : 720 pixels\r\nHeight                         : 304 pixels\r\nDisplay aspect ratio           : 2.40:1\r\nFrame rate                     : 23.976 fps\r\nColor space                    : YUV\r\nChroma subsampling             : 4:2:0\r\nBit depth                      : 8 bits\r\nScan type                      : Progressive\r\nCompression mode               : Lossy\r\nBits/(Pixel*Frame)             : 0.324\r\nStream size                    : 1.36 GiB (79%)\r\nWriting library                : XviD 1.2.1 (UTC 2008-12-04)\r\nAudio\r\nID                             : 1\r\nFormat                         : AC-3\r\nFormat/Info                    : Audio Coding 3\r\nMode extension                 : CM (complete main)\r\nFormat settings, Endianness    : Big\r\nCodec ID                       : 2000\r\nDuration                       : 1h 54mn\r\nBit rate mode                  : Constant\r\nBit rate                       : 448 Kbps\r\nChannel(s)                     : 6 channels\r\nChannel positions              : Front: L C R, Side: L R, LFE\r\nSampling rate                  : 48.0 KHz\r\nBit depth                      : 16 bits\r\nCompression mode               : Lossy\r\nStream size                    : 368 MiB (21%)\r\nAlignment                      : Split accross interleaves\r\nInterleave, duration           : 42 ms (1.00 video frame)\r\nInterleave, preload duration   : 500 ms
Men.In.Black.3.2D.2012.BRRip.XviD-ETRG.mkv 1.697 GB
mib3-1.jpg 158.457 KB
mib3-2.jpg 81.225 KB
Gathering some info...

Register and log in Isohunt and see no captcha anymore!

4000 symbols left
Hash E8E26BA7F477970924277E5D8768E598CF0D2F02