imdb
rating

6.6
John Carter

John Carter (2012)

Action, Adventure, Fantasy, Science Fiction

Full description
quality   dvdrip telesync dvd bd fullhd

John Carter[2012]ENG[BRRip]XviD-RedDragon

Size 785.501 MB   21 seeders     Added 2012-06-04 03:00:09

Stream torrent
Starting‥ You need BitLord! Get it from BitLord.com
10
To download or stream you need BitLord. Visit them at BitLord.com
[b][img]image[/img]\r\n\r\nGeneral.\r\n\r\nComplete name                    : John Carter[2012]ENG[BRRip]XviD-{RedDragon}.mp4\r\nFormat                           : MPEG-4\r\nFormat profile                   : Base Media / Version 2\r\nCodec ID                         : mp42\r\nFile size                        : 749 MiB\r\nDuration                         : 2h 12mn\r\nOverall bit rate                 : 793 Kbps\r\nIMDB Rating                      : 6.9/10\r\nIMDB Link                        : http://www.imdb.com/title/tt0401729/\r\n\r\n\r\nVideo.\r\n\r\nID                               : 1\r\nFormat                           : MPEG-4 Visual\r\nFormat profile                   : Simple@L1\r\nFormat settings, BVOP            : No\r\nFormat settings, QPel            : No\r\nFormat settings, GMC             : No warppoints\r\nFormat settings, Matrix          : Default (H.263)\r\nCodec ID                         : 20\r\nDuration                         : 2h 12mn\r\nBit rate mode                    : Variable\r\nBit rate                         : 629 Kbps\r\nMaximum bit rate                 : 4,974 Kbps\r\nWidth                            : 608 pixels\r\nHeight                           : 256 pixels\r\nDisplay aspect ratio             : 2.35:1\r\nFrame rate mode                  : Variable\r\nFrame rate                       : 23.976 fps\r\nMinimum frame rate               : 23.974 fps\r\nMaximum frame rate               : 23.981 fps\r\nColor space                      : YUV\r\nChroma subsampling               : 4:2:0\r\nBit depth                        : 8 bits\r\nScan type                        : Progressive\r\nBits/(Pixel*Frame)               : 0.169\r\nStream size                      : 594 MiB (79%)\r\nWriting library                  : Lavc52.94.3\r\nEncoded date                     : UTC 2012-06-02 13:44:35\r\nTagged date                      : UTC 2012-06-02 13:51:50\r\n\r\n\r\nAudio.\r\n\r\nID                               : 2\r\nFormat                           : AAC\r\nFormat/Info                      : Advanced Audio Codec\r\nFormat version                   : Version 4\r\nFormat profile                   : LC\r\nFormat settings, SBR             : No\r\nCodec ID                         : 40\r\nDuration                         : 2h 12mn\r\nBit rate mode                    : Variable\r\nBit rate                         : 160 Kbps\r\nMaximum bit rate                 : 185 Kbps\r\nChannel(s)                       : 2 channels\r\nChannel positions                : Front: L R\r\nSampling rate                    : 48.0 KHz\r\nStream size                      : 151 MiB (20%) [/b]
Facebook Fan Page .txt 169 B
John Carter[2012]ENG[BRRip]XviD-{RedDragon}.mp4 785.496 MB
Read Me First .txt 313 B
Gathering some info...

Register and log in Isohunt and see no captcha anymore!

4000 symbols left
Hash 495C2BBD10B01400F660BECA0D4AF0C6FA6EEEA5

Related torrents for "John Carter[2012]ENG[BRRip]XviD-RedDragon"

Torrent search:

english 2012 bd