imdb
rating

7.1
We Bought a Zoo

We Bought a Zoo (2011)

Comedy, Drama, Family

Full description

We Bought a Zoo 2011 DVDrip English Klam

Size 2.068 GB   6 seeders     Added 2012-06-06 02:56:52

Stream torrent
Starting‥ You need BitLord! Get it from BitLord.com
To download or stream you need BitLord. Visit them at BitLord.com
[img] image[/img]\r\n\r\nWith: Matt Damon, Scarlett Johansson en Thomas Haden Church\r\n\r\n'We Bought a Zoo' is gebaseerd op het waargebeurde verhaal van voormalig Guardian journalist Benjamin Mee (Matt Damon) die na de dood van zijn vrouw een vervallen dierentuin op het Amerikaanse platteland koopt van zijn laatste spaargeld. Het opknappen van de dierentuin gaat gepaard met enige hindernissen en ook privé komt er het één en ander om de hoek kijken.\r\n\r\nSet in Southern California, a father moves his young family to the countryside to renovate and re-open a struggling zoo. \r\n\r\nhttp://www.imdb.com/title/tt1389137\r\n\r\n[COLOR=#3300FF]------------------------ Dutch Friends ------------------------\r\n---------------------------------------------------------------\r\n- Bezoek ook eens mijn vrienden op:  http://www.Film-Test.nl --\r\n----- voor mijn Nederlandse Sync. ondertitels ---- en meer ----\r\n------- http://www.Film-Test.nl ---- voor Films en meer -------\r\n---------------------------------------------------------------[/COLOR]\r\n\r\nGeneral:\r\n\r\nComplete name                    : We Bought a Zoo\\We Bought a Zoo.avi\r\nFormat                           : AVI\r\nFormat/Info                      : Audio Video Interleave\r\nFile size                        : 1.93 GiB\r\nDuration                         : 2h 3mn\r\nOverall bit rate                 : 2 226 Kbps\r\n\r\nVideo:\r\n\r\nFormat                           : MPEG-4 Visual\r\nFormat profile                   : Simple@L3\r\nFormat settings, BVOP            : No\r\nFormat settings, QPel            : No\r\nFormat settings, GMC             : No warppoints\r\nFormat settings, Matrix          : Default (H.263)\r\nCodec ID                         : XVID\r\nCodec ID/Hint                    : XviD\r\nDuration                         : 2h 3mn\r\nBit rate                         : 1 767 Kbps\r\nWidth                            : 652 pixels\r\nHeight                           : 352 pixels\r\nDisplay aspect ratio             : 1.852\r\nFrame rate                       : 23.976 fps\r\nColor space                      : YUV\r\nChroma subsampling               : 4:2:0\r\nBit depth                        : 8 bits\r\nScan type                        : Progressive\r\nCompression mode                 : Lossy\r\nBits/(Pixel*Frame)               : 0.321\r\nStream size                      : 1.53 GiB (79%)\r\nWriting library                  : XviD 1.1.2 (UTC 2006-11-01)\r\n\r\nAudio:\r\n\r\nFormat                           : AC-3\r\nFormat/Info                      : Audio Coding 3\r\nMode extension                   : CM (complete main)\r\nCodec ID                         : 2000\r\nDuration                         : 2h 3mn\r\nBit rate mode                    : Constant\r\nBit rate                         : 448 Kbps\r\nChannel(s)                       : 6 channels\r\nChannel positions                : Front: L C R, Side: L R, LFE\r\nSampling rate                    : 48.0 KHz\r\nBit depth                        : 16 bits\r\nCompression mode                 : Lossy\r\nStream size                      : 397 MiB (20%)\r\nAlignment                        : Aligned on interleaves\r\nInterleave, duration             : 32 ms (0.77 video frame)\r\nInterleave, preload duration     : 480 ms
We Bought a Zoo.avi 2.068 GB
Cover/We Bought a Zoo.jpg 53.325 KB
www.Film-Test.nl.JPG 34.175 KB
Gathering some info...

Register and log in Isohunt and see no captcha anymore!

4000 symbols left
Hash C70AC151719AB36E6F9B211BAFE1DF15FBBB5F6D

Related torrents for "We Bought a Zoo 2011 DVDrip English Klam"

Torrent search:

dvdrip english 2011