imdb
rating

5.8
The Dead

The Dead (2010)

Action, Horror, Science Fiction, Thriller

Full description
quality   dvdr dvdrip x264

National Geographic Alaska Wing Men Deadly Skies HDTV x264-NGCSD

Size 282.067 MB   0 seeders     Added 2012-06-11 02:52:29

Stream torrent
Starting‥ You need BitLord! Get it from 1BitLord.com
To download or stream you need BitLord. Visit them at BitLord.com
National.Geographic.Alaska.Wing.Men.Deadly.Skies.HDTV.x264-NGCSD\r\n\r\nPlot\r\nAirplanes are the lifeblood of Alaska, transporting critical supplies and rescuing the lost and injured in areas where roads don't reach. But violent weather and extreme terrain make these the most dangerous skies in the country, and bush pilots often go beyond the call of duty to get the job done.\r\n\r\n\r\n\r\nGeneral\r\nComplete name                  : National.Geographic.Alaska.Wing.Men.Deadly.Skies.HDTV.x264-NGCSD.mp4\r\nFormat                         : MPEG-4\r\nFormat profile                 : Base Media\r\nCodec ID                       : isom\r\nFile size                      : 270 MiB\r\nDuration                       : 44mn 59s\r\nOverall bit rate mode          : Variable\r\nOverall bit rate               : 838 Kbps\r\nEncoded date                   : UTC 2012-06-07 12:46:54\r\nTagged date                    : UTC 2012-06-07 12:46:54\r\nWriting application            : My MP4Box GUI 0.5.6.0 <http:>\r\n\r\nVideo\r\nID                             : 1\r\nFormat                         : AVC\r\nFormat/Info                    : Advanced Video Codec\r\nFormat profile                 : High@L3.1\r\nFormat settings, CABAC         : Yes\r\nFormat settings, ReFrames      : 5 frames\r\nCodec ID                       : avc1\r\nCodec ID/Info                  : Advanced Video Coding\r\nDuration                       : 44mn 59s\r\nBit rate                       : 706 Kbps\r\nMaximum bit rate               : 3 234 Kbps\r\nWidth                          : 720 pixels\r\nHeight                         : 406 pixels\r\nDisplay aspect ratio           : 16:9\r\nFrame rate mode                : Constant\r\nFrame rate                     : 25.000 fps\r\nColor space                    : YUV\r\nChroma subsampling             : 4:2:0\r\nBit depth                      : 8 bits\r\nScan type                      : Progressive\r\nBits/(Pixel*Frame)             : 0.097\r\nStream size                    : 227 MiB (84%)\r\nTitle                          : Imported with GPAC 0.4.6-DEV (internal rev. 5)\r\nWriting library                : x264 core 124 r2197 69a0443\r\nEncoding settings              : cabac=1 / ref=5 / deblock=1:0:0 / analyse=0x3:0x113 / me=umh / subme=8 / psy=1 / psy_rd=1.00:0.00 / mixed_ref=1 / me_range=16 / chroma_me=1 / trellis=1 / 8x8dct=1 / cqm=0 / deadzone=21,11 / fast_pskip=1 / chroma_qp_offset=-2 / threads=18 / sliced_threads=0 / nr=0 / decimate=1 / interlaced=0 / bluray_compat=0 / constrained_intra=0 / bframes=3 / b_pyramid=2 / b_adapt=2 / b_bias=0 / direct=3 / weightb=1 / open_gop=0 / weightp=2 / keyint=250 / keyint_min=25 / scenecut=40 / intra_refresh=0 / rc_lookahead=50 / rc=crf / mbtree=1 / crf=22.0 / qcomp=0.60 / qpmin=0 / qpmax=69 / qpstep=4 / ip_ratio=1.40 / aq=1:1.00\r\nEncoded date                   : UTC 2012-06-07 12:46:54\r\nTagged date                    : UTC 2012-06-07 12:46:56\r\nMatrix coefficients            : BT.709-5, BT.1361, IEC 61966-2-4 709, SMPTE RP177\r\n\r\nAudio\r\nID                             : 2\r\nFormat                         : AAC\r\nFormat/Info                    : Advanced Audio Codec\r\nFormat profile                 : LC\r\nCodec ID                       : 40\r\nDuration                       : 44mn 59s\r\nBit rate mode                  : Variable\r\nBit rate                       : 128 Kbps\r\nMaximum bit rate               : 157 Kbps\r\nChannel(s)                     : 2 channels\r\nChannel positions              : Front: L R\r\nSampling rate                  : 48.0 KHz\r\nCompression mode               : Lossy\r\nStream size                    : 41.1 MiB (15%)\r\nEncoded date                   : UTC 2012-06-07 12:46:56\r\nTagged date                    : UTC 2012-06-07 12:46:56</http:>
National.Geographic.Alaska.Wing.Men.Deadly.Skies.HDTV.x264-NGCSD.rar 282.067 MB
Read ME.txt 296 B
Gathering some info...

Register and log in Isohunt and see no captcha anymore!

4000 symbols left
Hash F3134F23831E2FE212089F5F73BF55AFCD012C43

Related torrents for "National Geographic Alaska Wing Men Deadly Skies HDTV x264-NGCSD"

Torrent search:

x264 hdtv