imdb
rating

7.4
Moby Dick

Moby Dick (1956)

Action, Adventure, Drama

Full description
quality   dvdrip x264 h264 hd web-dl hdtv

Moby Dick

Size 3.778 GB   0 seeders     Added 2012-06-12 02:53:52

Stream torrent
Starting‥ You need BitLord! Get it from BitLord.com
To download or stream you need BitLord. Visit them at BitLord.com
[img] image[/img]\r\n\r\nWith: William Hurt, Ethan Hawke and Charlie Cox\r\n\r\nMiniserie 2 delen,\r\nDe bemanning van het zeilschip Pequod moeten werken onder de gekke wil van de wrekende kapitein Ahab (William Hurt). Ahab wordt gedreven door een eindeloze haat jegens de mysterieuze witte walvis Moby Dick en is vastbesloten om hem te vangen.\r\n\r\nMiniserie 2 parts,\r\nThe sole survivor of a lost whaling ship relates the tale of his captain's self-destructive obsession to hunt the white whale, Moby Dick. \r\n\r\nhttp://www.imdb.com/title/tt1334573\r\n\r\n[COLOR=#3300FF]------------------------ Dutch Friends ------------------------\r\n---------------------------------------------------------------\r\n- Bezoek ook eens mijn vrienden op:  http://www.Film-Test.nl --\r\n----- voor mijn Nederlandse Sync. ondertitels ---- en meer ----\r\n------- http://www.Film-Test.nl ---- voor Films en meer -------\r\n---------------------------------------------------------------[/COLOR]\r\n\r\nGeneral:\r\n\r\nComplete name                    : Moby Dick\\Part01.avi\r\nFormat                           : AVI\r\nFormat/Info                      : Audio Video Interleave\r\nFile size                        : 1.76 GiB\r\nDuration                         : 1h 31mn\r\nOverall bit rate                 : 2 768 Kbps\r\n\r\nVideo:\r\n\r\nFormat                           : MPEG-4 Visual\r\nFormat profile                   : Simple@L3\r\nFormat settings, BVOP            : No\r\nFormat settings, QPel            : No\r\nFormat settings, GMC             : No warppoints\r\nFormat settings, Matrix          : Default (H.263)\r\nCodec ID                         : XVID\r\nCodec ID/Hint                    : XviD\r\nDuration                         : 1h 31mn\r\nBit rate                         : 2 309 Kbps\r\nWidth                            : 704 pixels\r\nHeight                           : 396 pixels\r\nDisplay aspect ratio             : 16:9\r\nFrame rate                       : 25.000 fps\r\nColor space                      : YUV\r\nChroma subsampling               : 4:2:0\r\nBit depth                        : 8 bits\r\nScan type                        : Progressive\r\nCompression mode                 : Lossy\r\nBits/(Pixel*Frame)               : 0.331\r\nStream size                      : 1.47 GiB (83%)\r\nWriting library                  : XviD 1.1.2 (UTC 2006-11-01)\r\n\r\nAudio:\r\n\r\nFormat                           : AC-3\r\nFormat/Info                      : Audio Coding 3\r\nMode extension                   : CM (complete main)\r\nCodec ID                         : 2000\r\nDuration                         : 1h 31mn\r\nBit rate mode                    : Constant\r\nBit rate                         : 448 Kbps\r\nChannel(s)                       : 6 channels\r\nChannel positions                : Front: L C R, Side: L R, LFE\r\nSampling rate                    : 48.0 KHz\r\nBit depth                        : 16 bits\r\nCompression mode                 : Lossy\r\nStream size                      : 292 MiB (16%)\r\nAlignment                        : Aligned on interleaves\r\nInterleave, duration             : 32 ms (0.80 video frame)\r\nInterleave, preload duration     : 736 ms
Part01.avi 1.889 GB
Part02.avi 1.889 GB
Cover/Moby Dick.jpg 72.885 KB
Gathering some info...

Register and log in Isohunt and see no captcha anymore!

4000 symbols left
Hash 33BF4827CF91F48A551A399562CE47A653DBF228

Related torrents for "Moby Dick"