Christina Perri Ft. Jason Mraz - Distance (Acoustic) (h264mp4)

Size 99.842 MB   7 seeders     Added 2012-06-13 02:37:57

Stream torrent
Starting‥ You need BitLord! Get it from 1BitLord.com
To download or stream you need BitLord. Visit them at BitLord.com
General
Format : MPEG-4
Format profile : Base Media
Codec ID : isom
File size : 95.2 MiB
Duration : 3mn 37s
Overall bit rate : 3 667 Kbps
Encoded date : UTC 2012-06-11 05:47:58
Tagged date : UTC 2012-06-11 05:47:58
Video
ID : 1
Format : AVC
Format/Info : Advanced Video Codec
Format profile : High@L3.0
Format settings, CABAC : Yes
Format settings, ReFrames : 2 frames
Codec ID : avc1
Codec ID/Info : Advanced Video Coding
Duration : 3mn 37s
Bit rate mode : Variable
Bit rate : 3 654 Kbps
Maximum bit rate : 11.2 Mbps
Width : 720 pixels
Height : 480 pixels
Display aspect ratio : 16:9
Original display aspect ratio : 16:9
Frame rate mode : Constant
Frame rate : 23.976 fps
Standard : NTSC
Color space : YUV
Chroma subsampling : 4:2:0
Bit depth : 8 bits
Scan type : Progressive
Bits/(Pixel*Frame) : 0.441
Stream size : 94.1 MiB (99%)
Audio
ID : 2
Format : AAC
Format/Info : Advanced Audio Codec
Format profile : LC
Codec ID : 40
Duration : 3mn 37s
Bit rate mode : Variable
Bit rate : 37.7 Kbps
Maximum bit rate : 45.5 Kbps
Channel(s) : 2 channels
Channel positions : Front: L R
Sampling rate : 44.1 KHz
Compression mode : Lossy
Stream size : 1 002 KiB (1%) 
ChristinaPerriFt.JasonMraz-Distance(Acoustic)-descargar-videos.org.mp4 99.842 MB
Gathering some info...

Register and log in Isohunt and see no captcha anymore!

4000 symbols left
Hash 1ACB0CE655EEDBB5EE4E5E8AE5CC573DEFC8D540