MadagascaR 3 Europes Most Wanted (2012) DVDScR XviD.AC3 - ARCH

Size 147.968 MB   2 seeders     Added 2012-06-13 02:50:38

To download or stream you need BitLord. Visit them at BitLord.com
MadagascaR 3: Europe's Most Wanted (2012) DVDScR_XviD.AC3 - ARCHEX ------------------------------------------------------------------ Sample..........................: Yes Sample Size.....................: 25.7 MiB ------------------------------------------ Details: ------- Video ID : 0 Format : MPEG-4 Visual Format profile : AdvancedSimple@L5 Format settings, BVOP : Yes Format settings, QPel : No Format settings, GMC : No warppoints Format settings, Matrix : Custom Codec ID : XVID Codec ID/Hint : XviD Duration : 1h 35mn Bit rate : 1 625 Kbps Width : 720 pixels Height : 304 pixels Display aspect ratio : 2.35:1 Frame rate : 23.976 fps Resolution : 24 bits Colorimetry : 4:2:0 Scan type : Progressive Bits/(Pixel*Frame) : 0.310 Stream size : 420 MiB (99%) Writing library : XviD 58 Audio ID : 1 Format : AC-3 Format/Info : Audio Coding 3 Codec ID : 2000 Duration : 1h 35mn Bit rate mode : Constant Bit rate : 192 Kbps Channel(s) : 2 channels Channel positions : L R Sampling rate : 48.0 KHz Stream size : 147 MiB (11%) Alignment : Aligned on interleaves Interleave, duration : 64 ms (1.53 video frames) Interleave, preload duration : 192 ms ----------------------------------------- Plot: ---- Alex, Marty, Gloria and Melman are still fighting to get home to their beloved Big Apple. Their journey takes them through Europe where they find the perfect cover: a traveling circus, which they reinvent - Madagascar style. -------------------------------------- Screenshots: ----------- image/ image/ image/ image/ image/ image/ image/ image/ image/ image/ ----------------------------------------------------
§§.zip 147.968 MB
Gathering some info...

Register and log in Isohunt and see no captcha anymore!

4000 symbols left
Hash B984B1B4B569F1997D783AE8FB55BCD43540A7A4

Related torrents for "MadagascaR 3 Europes Most Wanted (2012) DVDScR XviD.AC3 - ARCH"

Torrent search:

2012