Deachment 2011 DVDrip English Klam

Size 1.804 GB   0 seeders     Added 2012-06-13 02:50:59

Stream torrent
Starting‥ You need BitLord! Get it from BitLord.com
To download or stream you need BitLord. Visit them at BitLord.com
[img] image[/img]\r\n\r\nWith: Adrien Brody, James Caan and Christina Hendricks\r\n\r\n\"Detachment\" vertelt het verhaal van drie weken in het leven van verschillende leraren, administratief personeel en leerlingen aan een middelbare school door de ogen van een interimleraar genaamd Henry Barthes. Henry gaat van school naar school, probeert z’n kennis over te dragen maar blijft nooit lang genoeg om enige binding met de school en z’n leerlingen te krijgen . Het is het perfecte beroep om je in alle openheid te verbergen. Op een dag komt Henry aan op weer een nieuwe school. Een geheime wereld van emoties wordt bij hem opgewekt door drie vrouwen: een jong meisje Meredith, een collega-lerares mevrouw Madison en een straathoertje Erica. Elk van deze vrouwen is, net zoals Henry, in een strijd op leven en dood verwikkeld op zoek naar schoonheid in een schijnbaar gemene en liefdeloze wereld.\r\n\r\nA substitute teacher who drifts from classroom to classroom finds a connection to the students and teachers during his latest assignment. \r\n\r\nhttp://www.imdb.com/title/tt1683526\r\n\r\n[COLOR=#3300FF]------------------------ Dutch Friends ------------------------\r\n---------------------------------------------------------------\r\n- Bezoek ook eens mijn vrienden op:  http://www.Film-Test.nl --\r\n----- voor mijn Nederlandse Sync. ondertitels ---- en meer ----\r\n------- http://www.Film-Test.nl ---- voor Films en meer -------\r\n---------------------------------------------------------------[/COLOR]\r\n\r\nGeneral±\r\n\r\nComplete name                    : Detachment\\Detachment.avi\r\nFormat                           : AVI\r\nFormat/Info                      : Audio Video Interleave\r\nFile size                        : 1.68 GiB\r\nDuration                         : 1h 37mn\r\nOverall bit rate                 : 2 460 Kbps\r\n\r\nVideo±\r\n\r\nFormat                           : MPEG-4 Visual\r\nFormat profile                   : Simple@L3\r\nFormat settings, BVOP            : No\r\nFormat settings, QPel            : No\r\nFormat settings, GMC             : No warppoints\r\nFormat settings, Matrix          : Default (H.263)\r\nCodec ID                         : XVID\r\nCodec ID/Hint                    : XviD\r\nDuration                         : 1h 37mn\r\nBit rate                         : 2 001 Kbps\r\nWidth                            : 652 pixels\r\nHeight                           : 352 pixels\r\nDisplay aspect ratio             : 1.852\r\nFrame rate                       : 25.000 fps\r\nColor space                      : YUV\r\nChroma subsampling               : 4:2:0\r\nBit depth                        : 8 bits\r\nScan type                        : Progressive\r\nCompression mode                 : Lossy\r\nBits/(Pixel*Frame)               : 0.349\r\nStream size                      : 1.36 GiB (81%)\r\nWriting library                  : XviD 1.1.2 (UTC 2006-11-01)\r\n\r\nAudio:\r\n\r\nFormat                           : AC-3\r\nFormat/Info                      : Audio Coding 3\r\nMode extension                   : CM (complete main)\r\nCodec ID                         : 2000\r\nDuration                         : 1h 37mn\r\nBit rate mode                    : Constant\r\nBit rate                         : 448 Kbps\r\nChannel(s)                       : 6 channels\r\nChannel positions                : Front: L C R, Side: L R, LFE\r\nSampling rate                    : 48.0 KHz\r\nBit depth                        : 16 bits\r\nCompression mode                 : Lossy\r\nStream size                      : 313 MiB (18%)\r\nAlignment                        : Aligned on interleaves\r\nInterleave, duration             : 32 ms (0.80 video frame)\r\nInterleave, preload duration     : 32 ms
Detachment.avi 1.802 GB
Cover/Deachment.jpg 2.414 MB
www.Film-Test.nl.JPG 34.175 KB
Gathering some info...

Register and log in Isohunt and see no captcha anymore!

4000 symbols left
Hash 066BF39C7E4DEDEE241F06B65D80FF457E360287