imdb
rating

8.1
The Avengers

The Avengers (2012)

Action, Adventure, Science Fiction

Full description

The Avengers 2012 DVDRIP-AbSurdiTy

Size 1.739 GB   0 seeders     Added 2012-06-13 02:57:29

Stream torrent
Starting‥ You need BitLord! Get it from BitLord.com
To download or stream you need BitLord. Visit them at BitLord.com
[IMG]image[/IMG]\r\n\r\n\r\nSource Video: The.Avengers.2012.2D.BRRip.avi\r\nSource Audio: The.Avengers.2012.2D.BRRip.avi\r\n\r\n\r\nComplete name                  : The.Avengers.2012.DVDRIP-AbSurdiTy.mkv\r\nFormat                           : MKV\r\nFormat/Info                      : Audio Video Interleave\r\nFormat profile                   : OpenDML\r\nFile size                        :  1.58 GB\r\nDuration                         : 2h 23mn\r\nOverall bit rate                 : 1 083 Kbps\r\n\r\nVideo\r\nID                               : 0\r\nFormat                           : MPEG-4 Visual\r\nFormat profile                   : Advanced Simple@L5\r\nFormat settings, BVOP            : 2\r\nFormat settings, QPel            : No\r\nFormat settings, GMC             : No warppoints\r\nFormat settings, Matrix          : Custom\r\nCodec ID                         : MKV\r\nCodec ID/Hint                    : MKV\r\nDuration                         : 2h 23mn\r\nBit rate                         : 946 Kbps\r\nWidth                            : 720 pixels\r\nHeight                           : 304 pixels\r\nDisplay aspect ratio             : 2.35:1\r\nFrame rate                       : 25.000 fps\r\nColor space                      : YUV\r\nChroma subsampling               : 4:2:0\r\nBit depth                        : 8 bits\r\nScan type                        : Progressive\r\nCompression mode                 : Lossy\r\nBits/(Pixel*Frame)               : 0.173\r\nStream size                      : 611 MiB (87%)\r\nWriting library                  : XviD 1.2.1 (UTC 2012-06-04)\r\n\r\nAudio\r\nID                               : 1\r\nFormat                           : MPEG Audio\r\nFormat version                   : Version 1\r\nFormat profile                   : Layer 3\r\nMode                             : Joint stereo\r\nMode extension                   : MS Stereo\r\nCodec ID                         : 55\r\nCodec ID/Hint                    : MP3\r\nDuration                         : 2h 23mn\r\nBit rate mode                    : Constant\r\nBit rate                         : 128 Kbps\r\nChannel(s)                       : 2 channels\r\nSampling rate                    : 48.0 KHz\r\nCompression mode                 : Lossy\r\nStream size                      : 82.7 MiB (12%)\r\nAlignment                        : Aligned on interleaves\r\nInterleave, duration             : 24 ms (0.60 video frame)\r\nInterleave, preload duration     : 192 ms\r\n\r\nPlot\r\nNick Fury of S.H.I.E.L.D. brings together a team of super humans to form The Avengers to help save the Earth from Loki and his army.\r\nDirector:\r\nJoss Whedon\r\nWriters:\r\nJoss Whedon (screenplay), Zak Penn (story), and 3 more credits »\r\nStars:\r\nRobert Downey Jr., Chris Evans and Scarlett Johansson \r\nGenre: Action | Adventure | Sci-Fi\r\n\r\n\r\nScreens\r\n[IMG]image[/IMG]\r\n\r\n[IMG]image[/IMG]
The.Avengers.2012.DVDRIP-AbSurdiTy.mkv 1.697 GB
Sample/sample.mkv 37.835 MB
Mkv Codec Package.rar 3.787 MB
Gathering some info...

Register and log in Isohunt and see no captcha anymore!

4000 symbols left
Hash 4EEE9B0E209056D1AA62EB2DF83967B725F871B8

Related torrents for "The Avengers 2012 DVDRIP-AbSurdiTy"

Torrent search:

dvdrip 2012