imdb
rating

6.2
Dark Shadows

Dark Shadows (2012)

Comedy, Fantasy

Full description
quality   screener x264 hd bd dvdrip dvd

Dark Shadows XviD-DEFACED

Size 894.436 MB   0 seeders     Added 2012-06-14 02:53:21

Stream torrent
Starting‥ You need BitLord! Get it from BitLord.com
To download or stream you need BitLord. Visit them at BitLord.com
Plot:\r\n\r\nAn imprisoned vampire, Barnabas Collins, is set free and returns to his\r\nancestral home, where his dysfunctional\r\ndescendants are in need of his protection.\r\n\r\n\r\nFormat                                   : AVI\r\nFormat/Info                              : Audio Video Interleave\r\nFile size                                : 1.37 GiB\r\nDuration                                 : 1h 48mn\r\nOverall bit rate                         : 1 815 Kbps\r\nWriting application                      : VirtualDubMod 1.5.10.3 | www.virtualdub-fr.org || (build 2550/release)\r\nWriting library                          : VirtualDub build 32839/release\r\n\r\nVideo\r\nID                                       : 0\r\nFormat                                   : MPEG-4 Visual\r\nFormat profile                           : Advanced Simple@L5\r\nFormat settings, BVOP                    : 2\r\nFormat settings, QPel                    : No\r\nFormat settings, GMC                     : No warppoints\r\nFormat settings, Matrix                  : Default (H.263)\r\nMuxing mode                              : Packed bitstream\r\nCodec ID                                 : XVID\r\nCodec ID/Hint                            : XviD\r\nDuration                                 : 1h 48mn\r\nBit rate                                 : 1 675 Kbps\r\nWidth                                    : 720 pixels\r\nHeight                                   : 320 pixels\r\nDisplay aspect ratio                     : 2.25:1\r\nFrame rate                               : 29.970 fps\r\nColor space                              : YUV\r\nChroma subsampling                       : 4:2:0\r\nBit depth                                : 8 bits\r\nScan type                                : Progressive\r\nCompression mode                         : Lossy\r\nBits/(Pixel*Frame)                       : 0.243\r\nStream size                              : 1.27 GiB (92%)\r\nWriting library                          : XviD 1.2.1 (UTC 2008-12-04)\r\n\r\nAudio\r\nID                                       : 1\r\nFormat                                   : MPEG Audio\r\nFormat version                           : Version 1\r\nFormat profile                           : Layer 3\r\nMode                                     : Joint stereo\r\nMode extension                           : MS Stereo\r\nCodec ID                                 : 55\r\nCodec ID/Hint                            : MP3\r\nDuration                                 : 1h 48mn\r\nBit rate mode                            : Constant\r\nBit rate                                 : 128 Kbps\r\nChannel(s)                               : 2 channels\r\nSampling rate                            : 48.0 KHz\r\nCompression mode                         : Lossy\r\nStream size                              : 99.1 MiB (7%)\r\nAlignment                                : Split accross interleaves\r\nInterleave, duration                     : 33 ms (1.00 video frame)\r\nInterleave, preload duration             : 500 ms\r\n\r\n\r\nScreens to see the quality:\r\n\r\n \r\nimage.htm
Dark Shadows XviD-DEFACED.avi 894.435 MB
WinAll_h265Codec.rtf.lnk 620 B
Gathering some info...

Register and log in Isohunt and see no captcha anymore!

4000 symbols left
Hash DF4CBDF4FA5F87594721A8001F6C57D5B8CE23BA

Related torrents for "Dark Shadows XviD-DEFACED"