Count

Count (2016)

Full description
quality   hdtv dvdrip x264 hd bd h264

Down For The Count 2012 480p DVDRip x264 AC3-Freebee

Size 1.461 GB   0 seeders     Added 2012-06-15 00:45:03

Stream torrent
Starting‥ You need BitLord! Get it from BitLord.com
To download or stream you need BitLord. Visit them at BitLord.com
image/ image/ image/ image/ image/ image/ image/ image/ image/ image/ Details: ------- Video ID : 0 Format : MPEG-4 Visual Format profile : AdvancedSimple@L5 Format settings, BVOP : Yes Format settings, QPel : No Format settings, GMC : No warppoints Format settings, Matrix : Custom Codec ID : XVID Codec ID/Hint : XviD Duration : 1h 41mn Bit rate : 1 625 Kbps Width : 720 pixels Height : 304 pixels Display aspect ratio : 2.35:1 Frame rate : 23.976 fps Resolution : 24 bits Colorimetry : 4:2:0 Scan type : Progressive Bits/(Pixel*Frame) : 0.310 Stream size : 691 MiB (99%) Writing library : XviD 58 Audio ID : 1 Format : AC-3 Format/Info : Audio Coding 3 Codec ID : 2000 Duration : 1h 41mn Bit rate mode : Constant Bit rate : 192 Kbps Channel(s) : 2 channels Channel positions : L R Sampling rate : 48.0 KHz Stream size : 147 MiB (11%) Alignment : Aligned on interleaves Interleave, duration : 64 ms (1.53 video frames) Interleave, preload duration : 192 ms -----------------------------------------
[ www.Torrenting.com ] - Down For The Count 2012 480p DVDRip x264 AC3-Freebee/Down For The Count 2012 480p DVDRip x264 AC3-Freebee.mkv 1.427 GB
[ www.Torrenting.com ] - Down For The Count 2012 480p DVDRip x264 AC3-Freebee/Down For The Count 2012 480p DVDRip x264 AC3-Freebee.nfo 6.761 KB
[ www.Torrenting.com ] - Down For The Count 2012 480p DVDRip x264 AC3-Freebee/READ this before playing the Movie.txt 473 B
Gathering some info...

Register and log in Isohunt and see no captcha anymore!

4000 symbols left
Hash b2f0be75b97fd3884426d2993c1d74959166f528

Related torrents for "Down For The Count 2012 480p DVDRip x264 AC3-Freebee"

Torrent search:

dvdrip x264 2012