Mary

Mary (1985)

Comedy

Full description

Mary Higgins Clark CollBox01 4DVDrip English Klam

Size 5.364 GB   0 seeders     Added 2012-06-16 02:49:37

Stream torrent
Starting‥ You need BitLord! Get it from BitLord.com
To download or stream you need BitLord. Visit them at BitLord.com
[img] image[/img]\r\n\r\n4 Mystery's Box\r\n\r\nLoves Music, Loves To Dance,\r\nPretend You Don't See Her,\r\nYou Belong To Me,\r\nLucky Day,\r\n\r\n[COLOR=#3300FF]------------------------ Dutch Friends ------------------------\r\n---------------------------------------------------------------\r\n- Bezoek ook eens mijn vrienden op:  http://www.Film-Test.nl --\r\n----- voor mijn Nederlandse Sync. ondertitels ---- en meer ----\r\n------- http://www.Film-Test.nl ---- voor Films en meer -------\r\n---------------------------------------------------------------[/COLOR]\r\n\r\nGeneral:\r\n\r\nComplete name                    : Mary Higgins Clark Box01\\Loves Music, Loves To Dance.avi\r\nFormat                           : AVI\r\nFormat/Info                      : Audio Video Interleave\r\nFile size                        : 1.23 GiB\r\nDuration                         : 1h 30mn\r\nOverall bit rate                 : 1 946 Kbps\r\n\r\nVideo:\r\n\r\nFormat                           : MPEG-4 Visual\r\nFormat profile                   : Simple@L3\r\nFormat settings, BVOP            : No\r\nFormat settings, QPel            : No\r\nFormat settings, GMC             : No warppoints\r\nFormat settings, Matrix          : Default (H.263)\r\nCodec ID                         : XVID\r\nCodec ID/Hint                    : XviD\r\nDuration                         : 1h 30mn\r\nBit rate                         : 1 711 Kbps\r\nWidth                            : 640 pixels\r\nHeight                           : 480 pixels\r\nDisplay aspect ratio             : 4:3\r\nFrame rate                       : 25.000 fps\r\nColor space                      : YUV\r\nChroma subsampling               : 4:2:0\r\nBit depth                        : 8 bits\r\nScan type                        : Progressive\r\nCompression mode                 : Lossy\r\nBits/(Pixel*Frame)               : 0.223\r\nStream size                      : 1.08 GiB (88%)\r\nWriting library                  : XviD 1.1.2 (UTC 2006-11-01)\r\n\r\nAudio:\r\n\r\nFormat                           : AC-3\r\nFormat/Info                      : Audio Coding 3\r\nMode extension                   : CM (complete main)\r\nCodec ID                         : 2000\r\nDuration                         : 1h 30mn\r\nBit rate mode                    : Constant\r\nBit rate                         : 224 Kbps\r\nChannel(s)                       : 2 channels\r\nChannel positions                : Front: L R\r\nSampling rate                    : 48.0 KHz\r\nBit depth                        : 16 bits\r\nCompression mode                 : Lossy\r\nStream size                      : 145 MiB (12%)\r\nAlignment                        : Aligned on interleaves\r\nInterleave, duration             : 32 ms (0.80 video frame)
Cover/Box1.jpg 10.693 KB
Cover/www.Film-Test.nl.JPG 34.175 KB
Loves Music, Loves To Dance.avi 1.323 GB
Gathering some info...

Register and log in Isohunt and see no captcha anymore!

4000 symbols left
Hash E6A93BFB760B0EC9C1A2697DCD5B1173F216652E

Related torrents for "Mary Higgins Clark CollBox01 4DVDrip English Klam"

Torrent search:

english