imdb
rating

6.1
Snow White and the Huntsman

Snow White and the Huntsman (2012)

Adventure, Drama, Fantasy

Full description
quality   screener dvd hd dvdrip cam bd

Snow White and the Huntsman (2012) DVDScR XviD.AC3 - AXNZ

Size 1.486 GB   0 seeders     Added 2012-06-16 02:52:48

Stream torrent
Starting‥ You need BitLord! Get it from BitLord.com
To download or stream you need BitLord. Visit them at BitLord.com
IMDb: http://www.imdb.com/title/tt1735898/ ------------------------------------------- Snow White and the Huntsman (2012) DVDScR_XviD.AC3 - AXNZ --------------------------------------------------------- Sample.........................: Yes Sample Size....................: 41.7 MiB ----------------------------------------- Details: ------- Video ID : 0 Format : MPEG-4 Visual Format profile : AdvancedSimple@L5 Format settings, BVOP : Yes Format settings, QPel : No Format settings, GMC : No warppoints Format settings, Matrix : Custom Codec ID : XVID Codec ID/Hint : XviD Duration : 2h 07mn Bit rate : 1 625 Kbps Width : 720 pixels Height : 304 pixels Display aspect ratio : 2.35:1 Frame rate : 23.976 fps Resolution : 24 bits Colorimetry : 4:2:0 Scan type : Progressive Bits/(Pixel*Frame) : 0.310 Stream size : 396 MiB (99%) Writing library : XviD 58 Audio ID : 1 Format : AC-3 Format/Info : Audio Coding 3 Codec ID : 2000 Duration : 2h 07mn Bit rate mode : Constant Bit rate : 192 Kbps Channel(s) : 2 channels Channel positions : L R Sampling rate : 48.0 KHz Stream size : 147 MiB (11%) Alignment : Aligned on interleaves Interleave, duration : 64 ms (1.53 video frames) Interleave, preload duration : 192 ms ----------------------------------------- Plot: ---- In a twist to the fairy tale, the Huntsman ordered to take Snow White into the woods to be killed winds up becoming her protector and mentor in a quest to vanquish the Evil Queen. -------------------------------- Screenshots: ----------- image/ image/ image/ image/ image/ image/ image/ image/ image/ image/ -----------------------------------------------------
Season 1/The World God Only Knows Episode 1 English Sub.mp4 57.048 MB
Season 1/The World God Only Knows Episode 10 English Sub.mp4 57.032 MB
Season 1/The World God Only Knows Episode 11 English Sub.mp4 57.024 MB
Gathering some info...

Register and log in Isohunt and see no captcha anymore!

4000 symbols left
Hash BC213677557B5E46891B06820DC637BFE22FEB73

Related torrents for "Snow White and the Huntsman (2012) DVDScR XviD.AC3 - AXNZ"

Torrent search:

screener 2012