Various Artists - Paulo Coelho o Compositor[Rock - 2007]

Size 458.46 MB   0 seeders     Added 2012-06-16 21:08:29

Stream torrent
Starting‥ You need BitLord! Get it from BitLord.com
To download or stream you need BitLord. Visit them at BitLord.com
[CENTER][img]image[/img]

[img]image[/img]

[img]image[/img]

[img]image[/img]

[b]
Artist: Paulo Coelho
Title Of Album: O Compositor
Etichetta: Universal Music 2007
Pubblicazione: CD 2007
Genre: MPB> Rock Brasiliano
Playing Time: 64,08
Total Size: 436,96 MB
Quality: FLAC+Cue+Log+Info+Cover[Front + Back + CD]
Bitrate: Lossless
[/b]

[img]image[/img]

[b]
1. Raul Seixas - Gita [04.50]
2. Rita Lee - Esse tal de Roque Enrow [03.53]
3. Raul Seixas - Eu Nasci A Dez Mil Anos Atras [04.50]
4. Elis Regina - Me Deixas Louca [03.06]
5. Raul Seixas - Como Vovo Já Dizia (Oculos Escuros) [03.21]
6. Raul Seixas - Al Capone [02.39]
7. Rita Lee - Cartao Postal [03.26]
8. Raul Seixas - As Minas Do Rei Salomão [02.56]
9. Lilian - Sou Rebelde [03.16]
10. Raul Seixas - Loteria Da Babilnia [02.30]
11. Raul Seixas - Sociedade Alternativa [02.52]
12. Ze Rodrig e Sergio Reis - Carga Pesada [03.28]
13. Cjitaozinho e Xororo - Medo Da Chuva [03.32]
14. Raul Seixas - A Maça [03.23]
15. Rosana - Fique Um Pouco Mais [03.14]
16. Raul Seixas - Ave Maria Da Rua [04.35]
17. Sonia Santos - Porque [02.01]
18. Raul Seixas - Rockixe [03.43]
19. Raul Seixas - Tente Outra Vez [02.23]
[/b]

[img]image[/img]

[b]
Paulo Coelho wrote song lyrics for the most talented voices of MPB, such as Elis Regina (Me vuelves place - Paulo Coelho version letting me mad) and Rita Lee (broke into the party I and II and Rock enrow This guy), but the compositions were made in partnership with Raul as "Gita", "I was born ten thousand years ago" and "Al Capone" that made him famous as one of the best lyricists of Brazilian Popular Music. 
[/b]

[img]image[/img]

[quote]
Exact Audio Copy V1.0 beta 3 from 29. August 2011

EAC extraction logfile from 10. June 2012, 18:13

Various Artists / O Compositor

Used drive  : HL-DT-STDVDRAM GSA-T40N   Adapter: 0  ID: 0

Read mode               : Secure
Utilize accurate stream : Yes
Defeat audio cache      : Yes
Make use of C2 pointers : No

Read offset correction                      : 667
Overread into Lead-In and Lead-Out          : No
Fill up missing offset samples with silence : Yes
Delete leading and trailing silent blocks   : No
Null samples used in CRC calculations       : Yes
Used interface                              : Native Win32 interface for Win NT & 2000
Gap handling                                : Appended to previous track

Used output format              : User Defined Encoder
Selected bitrate                : 896 kBit/s
Quality                         : High
Add ID3 tag                     : No
Command line compressor         : C:\Program Files\Exact Audio Copy\FLAC\FLAC.EXE
Additional command line options : -8 -V -T "ARTIST=%artist%" -T "TITLE=%title%" -T "ALBUM=%albumtitle%" -T "DATE=%year%" -T "TRACKNUMBER=%tracknr%" -T "GENRE=%genre%" -T "COMMENT=%comment%" -T "BAND=%albuminterpret%" -T "ALBUMARTIST=%albuminterpret%" -T "COMPOSER=%composer%" %haslyrics%--tag-from-file=LYRICS="%lyricsfile%"%haslyrics% -T "DISCNUMBER=%cdnumber%" -T "TOTALDISCS=%totalcds%" -T "TOTALTRACKS=%numtracks%" %hascover%--picture="%coverfile%"%hascover% %source% -o %dest%


TOC of the extracted CD

     Track |   Start  |  Length  | Start sector | End sector 
    ---------------------------------------------------------
        1  |  0:00.00 |  4:50.08 |         0    |    21757   
        2  |  4:50.08 |  3:53.30 |     21758    |    39262   
        3  |  8:43.38 |  4:50.40 |     39263    |    61052   
        4  | 13:34.03 |  3:06.62 |     61053    |    75064   
        5  | 16:40.65 |  3:21.50 |     75065    |    90189   
        6  | 20:02.40 |  2:39.68 |     90190    |   102182   
        7  | 22:42.33 |  3:26.42 |    102183    |   117674   
        8  | 26:09.00 |  2:56.58 |    117675    |   130932   
        9  | 29:05.58 |  3:16.50 |    130933    |   145682   
       10  | 32:22.33 |  2:30.10 |    145683    |   156942   
       11  | 34:52.43 |  2:52.02 |    156943    |   169844   
       12  | 37:44.45 |  3:28.70 |    169845    |   185514   
       13  | 41:13.40 |  3:32.50 |    185515    |   201464   
       14  | 44:46.15 |  3:23.50 |    201465    |   216739   
       15  | 48:09.65 |  3:14.70 |    216740    |   231359   
       16  | 51:24.60 |  4:35.45 |    231360    |   252029   
       17  | 56:00.30 |  2:01.63 |    252030    |   261167   
       18  | 58:02.18 |  3:43.55 |    261168    |   277947   
       19  | 61:45.73 |  2:23.01 |    277948    |   288673   


Track  1

     Filename H:\MY EAC[.FLAC]\Various Artists - Paulo Coelho o Compositor\(1) Gita - Raul Seixas.Flac

     Pre-gap length  0:00:02.00

     Peak level 100.0 %
     Extraction speed 2.3 X
     Track quality 100.0 %
     Test CRC D02E322E
     Copy CRC D02E322E
     Track not present in AccurateRip database
     Copy OK

Track  2

     Filename H:\MY EAC[.FLAC]\Various Artists - Paulo Coelho o Compositor\(2) Esse tal de Roque Enrow - Rita Lee.Flac

     Peak level 98.7 %
     Extraction speed 2.0 X
     Track quality 99.9 %
     Test CRC 2D4DAC26
     Copy CRC 2D4DAC26
     Track not present in AccurateRip database
     Copy OK

Track  3

     Filename H:\MY EAC[.FLAC]\Various Artists - Paulo Coelho o Compositor\(3) Eu Nasci A Dez Mil Anos Atras - Raul Seixas.Flac

     Peak level 99.9 %
     Extraction speed 2.0 X
     Track quality 100.0 %
     Test CRC E474CD53
     Copy CRC E474CD53
     Track not present in AccurateRip database
     Copy OK

Track  4

     Filename H:\MY EAC[.FLAC]\Various Artists - Paulo Coelho o Compositor\(4) Me Deixas Louca - Elis Regina.Flac

     Peak level 99.9 %
     Extraction speed 2.3 X
     Track quality 100.0 %
     Test CRC 33A6C8CC
     Copy CRC 33A6C8CC
     Track not present in AccurateRip database
     Copy OK

Track  5

     Filename H:\MY EAC[.FLAC]\Various Artists - Paulo Coelho o Compositor\(5) Como Vovo Ja Dizia (culos Escuros) - Raul Seixas.Flac

     Peak level 99.9 %
     Extraction speed 1.6 X
     Track quality 100.0 %
     Test CRC 39D151D0
     Copy CRC 39D151D0
     Track not present in AccurateRip database
     Copy OK

Track  6

     Filename H:\MY EAC[.FLAC]\Various Artists - Paulo Coelho o Compositor\(6) Al Capone - Raul Seixas.Flac

     Peak level 99.9 %
     Extraction speed 2.4 X
     Track quality 100.0 %
     Test CRC 814D1E15
     Copy CRC 814D1E15
     Track not present in AccurateRip database
     Copy OK

Track  7

     Filename H:\MY EAC[.FLAC]\Various Artists - Paulo Coelho o Compositor\(7) Cartao Postal - Rita Lee.Flac

     Peak level 98.2 %
     Extraction speed 2.4 X
     Track quality 100.0 %
     Test CRC 1A8A2464
     Copy CRC 1A8A2464
     Track not present in AccurateRip database
     Copy OK

Track  8

     Filename H:\MY EAC[.FLAC]\Various Artists - Paulo Coelho o Compositor\(8) As Minas Do Rei Salomao - Raul Seixas.Flac

     Peak level 99.2 %
     Extraction speed 2.9 X
     Track quality 100.0 %
     Test CRC 2107DDDD
     Copy CRC 2107DDDD
     Track not present in AccurateRip database
     Copy OK

Track  9

     Filename H:\MY EAC[.FLAC]\Various Artists - Paulo Coelho o Compositor\(9) Sou Rebelde - Lilian.Flac

     Peak level 97.4 %
     Extraction speed 3.1 X
     Track quality 100.0 %
     Test CRC 87837BA8
     Copy CRC 87837BA8
     Track not present in AccurateRip database
     Copy OK

Track 10

     Filename H:\MY EAC[.FLAC]\Various Artists - Paulo Coelho o Compositor\(10) Loteria Da Babilnia - Raul Seixas.Flac

     Peak level 100.0 %
     Extraction speed 3.1 X
     Track quality 100.0 %
     Test CRC 9CA284D0
     Copy CRC 9CA284D0
     Track not present in AccurateRip database
     Copy OK

Track 11

     Filename H:\MY EAC[.FLAC]\Various Artists - Paulo Coelho o Compositor\(11) Sociedade Alternativa - Raul Seixas.Flac

     Peak level 99.9 %
     Extraction speed 3.2 X
     Track quality 100.0 %
     Test CRC 5889F708
     Copy CRC 5889F708
     Track not present in AccurateRip database
     Copy OK

Track 12

     Filename H:\MY EAC[.FLAC]\Various Artists - Paulo Coelho o Compositor\(12) Carga Pesada - Ze Rodrig e Sergio Reis.Flac

     Peak level 98.6 %
     Extraction speed 3.1 X
     Track quality 100.0 %
     Test CRC A08F6B89
     Copy CRC A08F6B89
     Track not present in AccurateRip database
     Copy OK

Track 13

     Filename H:\MY EAC[.FLAC]\Various Artists - Paulo Coelho o Compositor\(13) Medo Da Chuva - Cjitaozinho e Xororo.Flac

     Peak level 100.0 %
     Extraction speed 3.1 X
     Track quality 100.0 %
     Test CRC 2CD95687
     Copy CRC 2CD95687
     Track not present in AccurateRip database
     Copy OK

Track 14

     Filename H:\MY EAC[.FLAC]\Various Artists - Paulo Coelho o Compositor\(14) A Maca - Raul Seixas.Flac

     Peak level 94.7 %
     Extraction speed 3.2 X
     Track quality 100.0 %
     Test CRC BCC18149
     Copy CRC BCC18149
     Track not present in AccurateRip database
     Copy OK

Track 15

     Filename H:\MY EAC[.FLAC]\Various Artists - Paulo Coelho o Compositor\(15) Fique Um Pouco Mais - Rosana.Flac

     Peak level 97.1 %
     Extraction speed 3.3 X
     Track quality 100.0 %
     Test CRC A0A26AF0
     Copy CRC A0A26AF0
     Track not present in AccurateRip database
     Copy OK

Track 16

     Filename H:\MY EAC[.FLAC]\Various Artists - Paulo Coelho o Compositor\(16) Ave Maria Da Rua - Raul Seixas.Flac

     Peak level 99.2 %
     Extraction speed 3.8 X
     Track quality 100.0 %
     Test CRC 5A53DB7D
     Copy CRC 5A53DB7D
     Track not present in AccurateRip database
     Copy OK

Track 17

     Filename H:\MY EAC[.FLAC]\Various Artists - Paulo Coelho o Compositor\(17) Porque - Sonia Santos.Flac

     Peak level 100.0 %
     Extraction speed 2.8 X
     Track quality 99.9 %
     Test CRC F10B003D
     Copy CRC F10B003D
     Track not present in AccurateRip database
     Copy OK

Track 18

     Filename H:\MY EAC[.FLAC]\Various Artists - Paulo Coelho o Compositor\(18) Rockixe - Raul Seixas.Flac

     Peak level 95.6 %
     Extraction speed 3.4 X
     Track quality 99.9 %
     Test CRC 15DEF3AB
     Copy CRC 15DEF3AB
     Track not present in AccurateRip database
     Copy OK

Track 19

     Filename H:\MY EAC[.FLAC]\Various Artists - Paulo Coelho o Compositor\(19) Tente Outra Vez - Raul Seixas.Flac

     Peak level 99.9 %
     Extraction speed 3.7 X
     Track quality 100.0 %
     Test CRC BF2D3BA0
     Copy CRC BF2D3BA0
     Track not present in AccurateRip database
     Copy OK


None of the tracks are present in the AccurateRip database

No errors occurred

End of status report

==== Log checksum 97AA34332FED293A945827F9DCE867886081AF4377A20BC767C1C455B2F42BA6 ====
[/quote]

[img]image[/img]

[img]image[/img][/CENTER]
Folder/Back.JPG 91.649 KB
Folder/cd.gif 99.332 KB
Folder/Front.JPG 61.029 KB
Gathering some info...

Register and log in Isohunt and see no captcha anymore!

4000 symbols left
Hash 8840412B1CB5301CE41F7D1234CBE8E43993F76C