Chenoa - Simplemente Tu (h264mp4)

Size 61.005 MB   1 seeders     Added 2012-06-17 02:36:56

Stream torrent
Starting‥ You need BitLord! Get it from BitLord.com
To download or stream you need BitLord. Visit them at BitLord.com
General
Format : MPEG-4
Format profile : Base Media
Codec ID : isom
File size : 58.2 MiB
Duration : 4mn 3s
Overall bit rate : 2 002 Kbps
Encoded date : UTC 2012-06-15 00:59:42
Tagged date : UTC 2012-06-15 00:59:42
Video
ID : 1
Format : AVC
Format/Info : Advanced Video Codec
Format profile : High@L3.0
Format settings, CABAC : Yes
Format settings, ReFrames : 2 frames
Codec ID : avc1
Codec ID/Info : Advanced Video Coding
Duration : 4mn 3s
Bit rate mode : Variable
Bit rate : 1 993 Kbps
Maximum bit rate : 10.3 Mbps
Width : 720 pixels
Height : 480 pixels
Display aspect ratio : 16:9
Original display aspect ratio : 16:9
Frame rate mode : Constant
Frame rate : 25.000 fps
Standard : NTSC
Color space : YUV
Chroma subsampling : 4:2:0
Bit depth : 8 bits
Scan type : Progressive
Bits/(Pixel*Frame) : 0.231
Stream size : 56.1 MiB (96%)
Audio
ID : 2
Format : AAC
Format/Info : Advanced Audio Codec
Format profile : LC
Codec ID : 40
Duration : 4mn 3s
Bit rate mode : Variable
Bit rate : 66.15 Kbps
Maximum bit rate : 86.6 Kbps
Channel(s) : 2 channels
Channel positions : Front: L R
Sampling rate : 44.1 KHz
Compression mode : Lossy
Stream size : 1.90 MiB (3%) 
Chenoa-SimplementeTu-descargar-videos.org.mp4 61.005 MB
Gathering some info...

Register and log in Isohunt and see no captcha anymore!

4000 symbols left
Hash 9218A538627A87A05536A48231AE709705211F4B