imdb
rating

7.1
Superman vs. The Elite

Superman vs. The Elite (2012)

Action, Animation

Full description
quality   dvdrip x264 hd bd fullhd

Superman vs The Elite 2012 DVDRip XviD Ac3 Feel-Free

Size 875.739 MB   0 seeders     Added 2012-06-17 06:41:43

Stream torrent
Starting‥ You need BitLord! Get it from BitLord.com
To download or stream you need BitLord. Visit them at BitLord.com
[img]image[/img]\r\n[img]image[/img]\r\n\r\n\r\n\r\nGenre:Animation \r\nLanguage:English\r\nIMDb:http://www.imdb.com/title/tt2224455/\r\nSource:DVD Thanks!\r\nEncoder:Tony\r\n  \r\nFormat                                   : AVI\r\nFormat/Info                              : Audio Video Interleave\r\nFile size                                : 818 MiB\r\nDuration                                 : 1h 14mn\r\nOverall bit rate                         : 1 544 Kbps\r\n\r\nVideo\r\nID                                       : 0\r\nFormat                                   : MPEG-4 Visual\r\nFormat profile                           : Advanced Simple@L5\r\nFormat settings, BVOP                    : 1\r\nFormat settings, QPel                    : No\r\nFormat settings, GMC                     : No warppoints\r\nFormat settings, Matrix                  : Default (H.263)\r\nCodec ID                                 : XVID\r\nCodec ID/Hint                            : XviD\r\nDuration                                 : 1h 14mn\r\nBit rate                                 : 1 151 Kbps\r\nWidth                                    : 640 pixels\r\nHeight                                   : 360 pixels\r\nDisplay aspect ratio                     : 16:9\r\nFrame rate                               : 23.976 fps\r\nColor space                              : YUV\r\nChroma subsampling                       : 4:2:0\r\nBit depth                                : 8 bits\r\nScan type                                : Progressive\r\nCompression mode                         : Lossy\r\nBits/(Pixel*Frame)                       : 0.208\r\nStream size                              : 610 MiB (75%)\r\nWriting library                          : XviD 1.2.1 (UTC 2008-12-04)\r\n\r\nAudio\r\nID                                       : 1\r\nFormat                                   : AC-3\r\nFormat/Info                              : Audio Coding 3\r\nMode extension                           : CM (complete main)\r\nFormat settings, Endianness              : Big\r\nCodec ID                                 : 2000\r\nDuration                                 : 1h 14mn\r\nBit rate mode                            : Constant\r\nBit rate                                 : 384 Kbps\r\nChannel(s)                               : 6 channels\r\nChannel positions                        : Front: L C R, Side: L R, LFE\r\nSampling rate                            : 48.0 KHz\r\nBit depth                                : 16 bits\r\nCompression mode                         : Lossy\r\nStream size                              : 204 MiB (25%)\r\nAlignment                                : Aligned on interleaves\r\nInterleave, duration                     : 42 ms (1.00 video frame)\r\nInterleave, preload duration             : 512 ms\r\n\r\n     \r\nPlot:\r\n  The Man of Steel finds himself outshone by a new team of ruthless superheroes who hold his idealism in contempt. \r\n\r\nTRAILER:http://www.youtube.com/watch?v=hXUu91JrpzA\r\n\r\n\r\nGreets:\r\n CRYS,INSPiRAL,IMAGINE,LKRG,ADTRG,FXG,3Li,FLAWL3SS,TA,iLLUSiON,EMBER,HOPE,GooN,BBnRG,NOGRP,ETRG,BHRG,iLLUMiNATi,MiSTERE.ViSiON,DTRG SAFCuk009,LU,TheFalcon007,MYSTiC,PrisM,Noir,WBZ,LAP,Rx,Kingdom,SAFCuk009+Fabreezy,HDLiTE,TWiZTED,ETRG.ELEKTRI4KA,MAGNAT,CM8\r\n                And to all the other p2p grps past and present \r\n \r\n--------------------------------------------------------------------------------------------\r\n\r\n
Superman.vs.The Elite.2012.DVDRip.XviD.Ac3.Feel-Free/First Read Me !.txt 145 B
Superman.vs.The Elite.2012.DVDRip.XviD.Ac3.Feel-Free/Superman vs. The Elite 2012 (Sample).mp4 15.935 MB
Superman.vs.The Elite.2012.DVDRip.XviD.Ac3.Feel-Free/Superman.vs.The Elite.2012.DVDRip.XviD.Ac3.Feel-Free.nfo 3.479 KB
Gathering some info...

Register and log in Isohunt and see no captcha anymore!

4000 symbols left
Hash 6b79e4fd5be316e4f695e6589173780c38353ef8

Related torrents for "Superman vs The Elite 2012 DVDRip XviD Ac3 Feel-Free"

Torrent search:

dvdrip 2012