imdb
rating

6.1
Snow White and the Huntsman

Snow White and the Huntsman (2012)

Adventure, Drama, Fantasy

Full description
quality   screener dvd hd dvdrip cam bd

Snow White and the Huntsman (2012) TS XviD AC3-ADTRG

Size 1.442 GB   0 seeders     Added 2012-06-18 06:43:34

Stream torrent
Starting‥ You need BitLord! Get it from BitLord.com
To download or stream you need BitLord. Visit them at BitLord.com
Snow White and the Huntsman (2012) TS XviD AC3-ADTRG\r\nFormat                           : AVI\r\nFormat/Info                      : Audio Video Interleave\r\nFormat profile                   : OpenDML\r\nFile size                        : 1.41 GiB\r\nDuration                         : 127 min\r\nOverall bit rate                 : 1 398 Kbps\r\nWriting application              : VirtualDubMod 1.5.10.2 (build 2542/release)\r\nWriting library                  : VirtualDubMod build 2542/release\r\nOriginal source form             : MAX TORRENTZ\r\nCopyright                        : SIGISMUNT\r\n\r\nVideo\r\nID                               : 0\r\nFormat                           : MPEG-4 Visual\r\nFormat profile                   : AdvancedSimple@L5\r\nFormat settings, BVOP            : Yes\r\nFormat settings, QPel            : No\r\nFormat settings, GMC             : No warppoints\r\nFormat settings, Matrix          : Default (MPEG)\r\nCodec ID                         : XVID\r\nCodec ID/Hint                    : XviD\r\nDuration                         : 127 min\r\nBit rate                         : 1 009 Kbps\r\nWidth                            : 640 pixels\r\nHeight                           : 272 pixels\r\nDisplay aspect ratio             : 2.35:1\r\nFrame rate                       : 23.976 fps\r\nResolution                       : 24 bits\r\nColorimetry                      : 4:2:0\r\nScan type                        : Progressive\r\nBits/(Pixel*Frame)               : 0.242\r\nStream size                      : 959 MiB (72%)\r\nWriting library                  : XviD 64\r\n\r\nAudio\r\nID                               : 1\r\nFormat                           : AC-3\r\nFormat/Info                      : Audio Coding 3\r\nCodec ID                         : 2000\r\nDuration                         : 127 min\r\nBit rate mode                    : Constant\r\nBit rate                         : 384 Kbps\r\nChannel(s)                       : 6 channels\r\nChannel positions                : Front: L C R, Surround: L R, LFE\r\nSampling rate                    : 48.0 KHz\r\nStream size                      : 365 MiB (27%)\r\nAlignment                        : Aligned on interleaves\r\nInterleave, duration             : 64 ms (1.53 video frames)\r\nInterleave, preload duration     : 192 ms\r\n\r\nSource: DVD (perfect a/v/sync quality,sample included,hardcoded english\r\nsubs for few original foreign parts)\r\nThis torrent is not seedbox supported,please seed it to the MAX\r\n\r\nNote: We need anything you can offer as early releases,seedboxes,links,accounts,etc\r\nplease contact us on piratepedia[@]msn/gmail.com or our website torentz 3xforum ro\r\n\r\nSnow White and the Huntsman (2012) TS XviD AC3-ADTRG Torrent Free Download\r\n\r\nhttp://www.imdb.com/title/tt1735898/
Snow White and the Huntsman (2012) TS XviD AC3-ADTRG/MOVIE.nfo 4.858 KB
Snow White and the Huntsman (2012) TS XviD AC3-ADTRG/Snow White and the Huntsman (2012) TS XviD AC3-ADTRG.avi 1.442 GB
Snow White and the Huntsman (2012) TS XviD AC3-ADTRG/Subs[ENG].srt 136.693 KB
Gathering some info...

Register and log in Isohunt and see no captcha anymore!

4000 symbols left
Hash ca622aaca3e1c2ac95d236bdfd0446be1eac22f1

Related torrents for "Snow White and the Huntsman (2012) TS XviD AC3-ADTRG"

Torrent search:

telesync 2012