Madagascar 3 Europe\'s Most Wanted (2012) FRENCH DVDRip XviD - Lz0

Size 735.963 MB   0 seeders     Added 2012-06-19 20:03:46

To download or stream you need BitLord. Visit them at BitLord.com
Audio: English | AC-3


Format : AVI
File size : 699 MB
Duration : 1h 33mn
Overall bit rate : 987 Kbps


Video
ID : 2
Format : DVDRip
Codec ID : XViD
Duration : 1h 33mn
Bit rate : 879 Kbps
Width : 720 pixels
Height : 404 pixels
Display aspect ratio : 16:9
Frame rate : 29.970 fps
Bits/(Pixel*Frame) : 0.201
Stream size : 654 MiB (88%)

Audio
ID : 1
Format : AC-3
Format/Info : Audio Coding 3
Mode extension : CM (complete main)
Muxing mode : Header stripping
Codec ID : A_AC3
Duration : 1h 33mn
Bit rate mode : Constant
Bit rate : 128 Kbps
Channel(s) : 2 channels
Channel positions : Front: L R
Sampling rate : 48.0 KHz
Bit depth : 16 bits
Compression mode : Lossy
Stream size : 55 MiB (10%)
.
Madagascar 3 Europe's Most Wanted (2012) FRENCH DVDRip XviD - Lz0/cover.jpg 2.5 MB
Madagascar 3 Europe's Most Wanted (2012) FRENCH DVDRip XviD - Lz0/Madagascar 3 Europe's Most Wanted (2012) FRENCH DVDRip XviD - Lz0.nfo 731 B
Madagascar 3 Europe's Most Wanted (2012) FRENCH DVDRip XviD - Lz0/Madagascar 3 Europe's Most Wanted (2012) FRENCH DVDRip XviD - Lz0/Madagascar 3 Europe's Most Wanted (2012) FRENCH DVDRip XviD - Lz0.rar 732.955 MB
Gathering some info...

Register and log in Isohunt and see no captcha anymore!

4000 symbols left
Hash 39c1223aae56bac4b08069d11c06fc4630e37b49