Prometheus (2012) FRENCH DVDRip XviD - CM8

Size 733.201 MB   0 seeders     Added 2012-06-19 20:22:21

Stream torrent
Starting‚Ä• You need BitLord! Get it from BitLord.com
To download or stream you need BitLord. Visit them at BitLord.com
Audio: English | AC-3\r\n\r\n\r\nFormat : AVI\r\nFile size : 699 MB\r\nDuration : 2h 24mn\r\nOverall bit rate : 987 Kbps\r\n\r\n\r\nVideo\r\nID : 2\r\nFormat : DVDRip\r\nCodec ID : XViD\r\nDuration : 2h 24mn\r\nBit rate : 879 Kbps\r\nWidth : 720 pixels\r\nHeight : 404 pixels\r\nDisplay aspect ratio : 16:9\r\nFrame rate : 29.970 fps\r\nBits/(Pixel*Frame) : 0.201\r\nStream size : 654 MiB (88%)\r\n\r\nAudio\r\nID : 1\r\nFormat : AC-3\r\nFormat/Info : Audio Coding 3\r\nMode extension : CM (complete main)\r\nMuxing mode : Header stripping\r\nCodec ID : A_AC3\r\nDuration : 2h 24mn\r\nBit rate mode : Constant\r\nBit rate : 128 Kbps\r\nChannel(s) : 2 channels\r\nChannel positions : Front: L R\r\nSampling rate : 48.0 KHz\r\nBit depth : 16 bits\r\nCompression mode : Lossy\r\nStream size : 55 MiB (10%)\r\n.
Prometheus (2012) FRENCH DVDRip XviD - CM8/cover.jpg 14.433 KB
Prometheus (2012) FRENCH DVDRip XviD - CM8/Prometheus (2012) FRENCH DVDRip XviD - CM8.nfo 731 B
Prometheus (2012) FRENCH DVDRip XviD - CM8/Prometheus (2012) FRENCH DVDRip XviD - CM8/Prometheus (2012) FRENCH DVDRip XviD - CM8.rar 732.955 MB
Gathering some info...

Register and log in Isohunt and see no captcha anymore!

4000 symbols left
Hash 629e77783ac036600f29fc5c0c2b7b0e60e07f25