imdb
rating

4.9
Die

Die (2010)

Mystery, Thriller

Full description
quality   dvdrip

Allein gegen die Zeit 2010 2DVDrip German Klam

Size 5.249 GB   3 seeders     Added 2012-06-20 02:55:58

Stream torrent
Starting‥ You need BitLord! Get it from 1BitLord.com
To download or stream you need BitLord. Visit them at BitLord.com
[img] image[/img]\r\n\r\nGerman spoken,\r\nTV serie 13 episodes,\r\nThe student Ben, Jonas, Leo, Sophie and Özzi be in detention on a Saturday in the school. When her teacher, Mr. Funke, leaves the room and....\r\n\r\nhttp://www.imdb.com/title/tt1461962\r\n\r\n[COLOR=#3300FF]------------------------ Dutch Friends ------------------------\r\n---------------------------------------------------------------\r\n- Bezoek ook eens mijn vrienden op:  http://www.Film-Test.nl --\r\n----- voor mijn Nederlandse Sync. ondertitels ---- en meer ----\r\n------- http://www.Film-Test.nl ---- voor Films en meer -------\r\n---------------------------------------------------------------[/COLOR]\r\n\r\nGeneral:\r\n\r\nComplete name                    : 13 uur Race Tegen de Klok\\Part01.avi\r\nFormat                           : AVI\r\nFormat/Info                      : Audio Video Interleave\r\nFile size                        : 2.44 GiB\r\nDuration                         : 2h 44mn\r\nOverall bit rate                 : 2 132 Kbps\r\n\r\nVideo:\r\n\r\nFormat                           : MPEG-4 Visual\r\nFormat profile                   : Simple@L3\r\nFormat settings, BVOP            : No\r\nFormat settings, QPel            : No\r\nFormat settings, GMC             : No warppoints\r\nFormat settings, Matrix          : Default (H.263)\r\nCodec ID                         : XVID\r\nCodec ID/Hint                    : XviD\r\nDuration                         : 2h 44mn\r\nBit rate                         : 1 673 Kbps\r\nWidth                            : 704 pixels\r\nHeight                           : 396 pixels\r\nDisplay aspect ratio             : 16:9\r\nFrame rate                       : 25.000 fps\r\nColor space                      : YUV\r\nChroma subsampling               : 4:2:0\r\nBit depth                        : 8 bits\r\nScan type                        : Progressive\r\nCompression mode                 : Lossy\r\nBits/(Pixel*Frame)               : 0.240\r\nStream size                      : 1.92 GiB (78%)\r\nWriting library                  : XviD 1.1.2 (UTC 2006-11-01)\r\n\r\nAudio:\r\n\r\nFormat                           : AC-3\r\nFormat/Info                      : Audio Coding 3\r\nMode extension                   : CM (complete main)\r\nCodec ID                         : 2000\r\nDuration                         : 2h 44mn\r\nBit rate mode                    : Constant\r\nBit rate                         : 448 Kbps\r\nChannel(s)                       : 6 channels\r\nChannel positions                : Front: L C R, Side: L R, LFE\r\nSampling rate                    : 48.0 KHz\r\nBit depth                        : 16 bits\r\nCompression mode                 : Lossy\r\nStream size                      : 526 MiB (21%)\r\nAlignment                        : Aligned on interleaves\r\nInterleave, duration             : 32 ms (0.80 video frame)\r\nInterleave, preload duration     : 320 ms
Cover/Race Tegen de Klok.jpg 120.95 KB
Cover/www.Film-Test.nl.JPG 34.175 KB
Part02.avi 2.625 GB
Gathering some info...

Register and log in Isohunt and see no captcha anymore!

4000 symbols left
Hash E12BCFD509DFDE6413E674A66F32A00DC8FD0575

Related torrents for "Allein gegen die Zeit 2010 2DVDrip German Klam"

Torrent search:

german 2010