Abraham Lincoln Vampire Hunter 2012 x264 source ADTRG - pkc

Size 1.969 GB   0 seeders     Added 2012-06-20 17:39:25

Stream torrent
Starting‚Ä• You need BitLord! Get it from BitLord.com
To download or stream you need BitLord. Visit them at BitLord.com
Abraham Lincoln: Vampire Hunter (2012)\r\n-------------------------------------------------------------------\r\nPlease share....Dont hit and run...Seed it back at least once.\r\n\r\nOf course, if you want to seed it back more than once, that would be ok too :)\r\n-------------------------------------------------------------------	\r\n\r\nQUALITY:  PERFECT 10/10\r\n\r\nAll details are here: \r\n\r\nFormat  | AVI           Language | ENGLISH  \r\nSource  | DVD PAL       Subs     | NONE \r\n\r\nQUALITY:  PERFECT 10/10\r\n\r\n- Video\r\nID                               : 0\r\nFormat                           : MPEG-4 Visual\r\nFormat profile                   : Advanced Simple@L5\r\nFormat settings, BVOP            : Yes\r\nFormat settings, QPel            : No\r\nFormat settings, GMC             : No warppoints\r\nFormat settings, Matrix          : Default (H.263)\r\nMuxing mode                      : Packed bitstream\r\nCodec ID                         : XVID\r\nCodec ID/Hint                    : XviD\r\nBit rate                         : 1 345 Kbps\r\nWidth                            : 720 pixels\r\nHeight                           : 314 pixels\r\nDisplay aspect ratio             : 2.25:1\r\nFrame rate                       : 29.970 fps\r\nColor space                      : YUV\r\nChroma subsampling               : 4:2:0\r\nBit depth                        : 8 bits\r\nScan type                        : Progressive\r\nCompression mode                 : Lossy\r\nBits/(Pixel*Frame)               : 0.198\r\nStream size                      : 1.19 GiB (87%)\r\nWriting library                  : XviD 1.1.0 (UTC 2005-11-22)\r\n\r\n- Audio\r\nID                               : 1\r\nFormat                           : AC-3\r\nFormat/Info                      : Audio Coding 3\r\nMode extension                   : CM (complete main)\r\nCodec ID                         : 2000\r\nBit rate mode                    : Constant\r\nBit rate                         : 192 Kbps\r\nChannel(s)                       : 2 channels\r\nChannel positions                : Front: L R\r\nSampling rate                    : 48.0 KHz\r\nBit depth                        : 16 bits\r\nCompression mode                 : Lossy\r\nStream size                      : 175 MiB (12%)\r\nAlignment                        : Aligned on interleaves\r\nInterleave, duration             : 33 ms (1.00 video frame)\r\nInterleave, preload duration     : 512 ms	\r\n\r\n- Greets\r\n\r\nGreets to | X | Joshua08 | IMAGiNE | PrisM | DiGiTAL iNK |\r\n\r\nTorrent Name : Abraham Lincoln Vampire Hunter 2012.x264 source ADTRG - pkc\r\n\r\n------------------------------------------------------------------------------------------\r\n\r\nGENRE : Action | Fantasy | Horror\r\n\r\nThe Plot :-Abraham Lincoln, the 16th President of the United States, discovers \r\n\r\nvampires are planning to take over the United States. He makes it his mission to \r\n\r\neliminate them.\r\n------------------------------------------------------------------------------------------
Abraham Lincoln Vampire Hunter 2012.x264 source ADTRG - pkc/Abraham Lincoln Vampire Hunter 2012.x264 source ADTRG - pkc.avi 1.969 GB
Gathering some info...

Register and log in Isohunt and see no captcha anymore!

4000 symbols left
Hash ff3c580dcbf91fb4b8dc4cec9dfcfec014a7f0e3

Related torrents for "Abraham Lincoln Vampire Hunter 2012 x264 source ADTRG - pkc"

Torrent search:

2012