imdb
rating

7.7
Harry Potter and the Deathly Hallows: Part 1

Harry Potter and the Deathly Hallows: Part 1 (2010)

Adventure, Family, Fantasy

Full description

Harry Potter and the Deathly Hallows Duology 2DVDrip English Dutch Klam

Size 3.927 GB   0 seeders     Added 2012-06-21 02:49:36

Stream torrent
Starting‥ You need BitLord! Get it from 1BitLord.com
To download or stream you need BitLord. Visit them at BitLord.com
[img] image[/img]\r\n\r\nWith: Daniel Radcliffe, Emma Watson and Rupert Grint\r\nDeel 1,\r\nHeel Groot-Brittanië wordt in haar greep gehouden door Heer Voldemort (Ralph Fiennes), die maar één doel voor ogen heeft: het opsporen en doden van Harry Potter (Daniel Radclife). Terwijl het hele land in oorlog verkeert, houden de bebrilde held en zijn twee beste vrienden Ron (Rupert Grint) en Hermelien (Emma Watson) zich schuil in de verste uithoeken van de Dreuzelwereld. Daar gaan ze op een levensgevaarlijke zoektocht naar de overgebleven Gruzielementen, de voorwerpen die Voldemorts ontsterfelijkheid garanderen. In de eerste helft van J.K. Rowling's laatste boek zal Harry zich bevinden in de duisterste gevaren, de meest epische avonturen en de diepste geheimen, waarvan er één hem in zijn ban zal houden: een oude legende, de Relieken van de Dood.\r\nDeel 2,\r\nHet tweede deel van het zevende boek zal Harry Potter (Daniel Radcliffe) dichter bij de dood brengen dan ooit, terwijl hij ervoor kiest om zijn zoektocht naar de Gruzielementen voort te zetten, met de hulp van Ron (Rupert Grint) en Hermelien (Emma Watson). Maar ondertussen woedt de oorlog voort, terwijl steeds meer geliefden van Harry het loodje moeten leggen. Maar de tovenaarswereld zal opstaan voor nog een laatste slag, de slag waarin de ultieme confrontatie tussen De Jongen Die Bleef Leven en de Heer van het Duister (Ralph Fiennes) zal plaatsvinden. Zal het Harry lukken om Voldemort weer sterfelijk te maken en hem voorgoed te verslaan?\r\n\r\nPart 1,\r\nAs Harry races against time and evil to destroy the Horcruxes, he uncovers the existence of three most powerful objects in the wizarding world: the Deathly Hallows. \r\nPart 2,\r\nHarry, Ron and Hermione search for Voldemort's remaining Horcruxes in their effort to destroy the Dark Lord. \r\n\r\nhttp://www.imdb.com/title/tt0926084	http://www.imdb.com/title/tt1201607\r\n[COLOR=#3300FF]\r\n------------------------ Dutch Friends ------------------------\r\n---------------------------------------------------------------\r\n- Bezoek ook eens mijn vrienden op:  http://www.Film-Test.nl --\r\n----- voor mijn Nederlandse Sync. ondertitels ---- en meer ----\r\n------- http://www.Film-Test.nl ---- voor Films en meer -------\r\n---------------------------------------------------------------\r\n[/COLOR]\r\nGeneral:\r\n\r\nComplete name                    : Harry Potter and the Deathly Hallows Duology\\Part01.avi\r\nFormat                           : AVI\r\nFormat/Info                      : Audio Video Interleave\r\nFile size                        : 1.89 GiB\r\nDuration                         : 2h 20mn\r\nOverall bit rate                 : 1 931 Kbps\r\n\r\nVideo:\r\n\r\nFormat                           : MPEG-4 Visual\r\nFormat profile                   : Simple@L3\r\nFormat settings, BVOP            : No\r\nFormat settings, QPel            : No\r\nFormat settings, GMC             : No warppoints\r\nFormat settings, Matrix          : Default (H.263)\r\nCodec ID                         : XVID\r\nCodec ID/Hint                    : XviD\r\nDuration                         : 2h 20mn\r\nBit rate                         : 1 146 Kbps\r\nWidth                            : 720 pixels\r\nHeight                           : 304 pixels\r\nDisplay aspect ratio             : 2.35:1\r\nFrame rate                       : 25.000 fps\r\nColor space                      : YUV\r\nChroma subsampling               : 4:2:0\r\nBit depth                        : 8 bits\r\nScan type                        : Progressive\r\nCompression mode                 : Lossy\r\nBits/(Pixel*Frame)               : 0.209\r\nStream size                      : 1.12 GiB (59%)\r\nWriting library                  : XviD 1.1.2 (UTC 2006-11-01)\r\n\r\nAudio's:\r\n\r\nFormat                           : AC-3\r\nFormat/Info                      : Audio Coding 3\r\nMode extension                   : CM (complete main)\r\nCodec ID                         : 2000\r\nDuration                         : 2h 20mn\r\nBit rate mode                    : Constant\r\nBit rate                         : 384 Kbps\r\nChannel(s)                       : 6 channels\r\nChannel positions                : Front: L C R, Side: L R, LFE\r\nSampling rate                    : 48.0 KHz\r\nBit depth                        : 16 bits\r\nCompression mode                 : Lossy\r\nStream size                      : 385 MiB (20%)\r\nAlignment                        : Aligned on interleaves\r\nInterleave, duration             : 32 ms (0.80 video frame)\r\nInterleave, preload duration     : 352 ms
Cover/Harry Potter.gif 1.302 MB
Cover/www.Film-Test.nl.JPG 34.175 KB
New Dutch Site.txt 117 B
Gathering some info...

Register and log in Isohunt and see no captcha anymore!

4000 symbols left
Hash 46CAA384B70D1E157F566B2236C926AD17D57EA8

Related torrents for "Harry Potter and the Deathly Hallows Duology 2DVDrip English Dutch Klam"

Torrent search:

english german