Achtste Groepers Huilen Niet 2012 DVDrip Dutch Klam

Size 1.965 GB   8 seeders     Added 2012-06-23 02:52:57

Stream torrent
Starting‥ You need BitLord! Get it from BitLord.com
10
To download or stream you need BitLord. Visit them at BitLord.com
[img] image[/img]\r\n\r\nNederlands gesproken,\r\nHanna Obbeek, Nils Verkooijen and Johanna ter Steege\r\n\r\n'Achtste Groepers Huilen Niet' vertelt het verhaal van de levenslustige Akkie (Hanna Obbeek) die wild is van voetbal, ook al vindt klasgenoot Joep dat voetballen geen meidensport is. Akkie laat zich niet op haar kop zitten en met humor gaat ze tegen zijn pesterijen in. Wanneer ze leukemie krijgt, behoudt Akkie haar optimisme en energie. De hele klas van juf Ina leeft met haar mee en zelfs vanuit het ziekenhuis blijft Akkie zich met het schoolvoetbaltoernooi bemoeien. Als ze zo achteruit gaat dat ze onmogelijk aan het toernooi mee kan doen, bedenkt de stoere Joep een heel bijzonder plan.\r\n\r\nDutch spoken,\r\nAdaptation of one of Benelux most famous children's novels. Tough prime school girl Akkie loves soccer and can be a real bully...\r\n\r\nhttp://www.imdb.com/title/tt1800372	\r\n\r\n[COLOR=#3300FF]------------------------ Dutch Friends ------------------------\r\n---------------------------------------------------------------\r\n- Bezoek ook eens mijn vrienden op:  http://www.Film-Test.nl --\r\n----- voor mijn Nederlandse Sync. ondertitels ---- en meer ----\r\n------- http://www.Film-Test.nl ---- voor Films en meer -------\r\n---------------------------------------------------------------[/COLOR]\r\n\r\nGeneral:\r\n\r\nComplete name                    : Achste Groepers Huilen Niet\\Achste Groepers Huilen Niet.avi\r\nFormat                           : AVI\r\nFormat/Info                      : Audio Video Interleave\r\nFile size                        : 1.83 GiB\r\nDuration                         : 1h 35mn\r\nOverall bit rate                 : 2 734 Kbps\r\n\r\nVideo:\r\n\r\nFormat                           : MPEG-4 Visual\r\nFormat profile                   : Simple@L3\r\nFormat settings, BVOP            : No\r\nFormat settings, QPel            : No\r\nFormat settings, GMC             : No warppoints\r\nFormat settings, Matrix          : Default (H.263)\r\nCodec ID                         : XVID\r\nCodec ID/Hint                    : XviD\r\nDuration                         : 1h 35mn\r\nBit rate                         : 2 275 Kbps\r\nWidth                            : 720 pixels\r\nHeight                           : 304 pixels\r\nDisplay aspect ratio             : 2.35:1\r\nFrame rate                       : 25.000 fps\r\nColor space                      : YUV\r\nChroma subsampling               : 4:2:0\r\nBit depth                        : 8 bits\r\nScan type                        : Progressive\r\nBits/(Pixel*Frame)               : 0.416\r\nStream size                      : 1.52 GiB (83%)\r\nWriting library                  : XviD 1.1.2 (UTC 2006-11-01)\r\n\r\nAudio:\r\n\r\nFormat                           : AC-3\r\nFormat/Info                      : Audio Coding 3\r\nMode extension                   : CM (complete main)\r\nCodec ID                         : 2000\r\nDuration                         : 1h 35mn\r\nBit rate mode                    : Constant\r\nBit rate                         : 448 Kbps\r\nChannel(s)                       : 6 channels\r\nChannel positions                : Front: L C R, Side: L R, LFE\r\nSampling rate                    : 48.0 KHz\r\nBit depth                        : 16 bits\r\nStream size                      : 307 MiB (16%)\r\nAlignment                        : Aligned on interleaves\r\nInterleave, duration             : 32 ms (0.80 video frame)
Achste Groepers Huilen Niet.avi 1.965 GB
Cover/Achtste Groepers Huilen Niet.jpg 104.66 KB
www.Film-Test.nl.JPG 34.175 KB
Gathering some info...

Register and log in Isohunt and see no captcha anymore!

4000 symbols left
Hash D88B761978D1CCCBBB6BF69B019B46BD13152F6F

Related torrents for "Achtste Groepers Huilen Niet 2012 DVDrip Dutch Klam"

Torrent search:

dvdrip german 2012