Weakling - Dead As Dreams (2000) [FLAC-CUE][A C U M ]

Size 589.765 MB   0 seeders     Added 2012-06-24 02:42:10

Stream torrent
Starting‥ You need BitLord! Get it from BitLord.com
To download or stream you need BitLord. Visit them at BitLord.com
Weakling - Dead As Dreams (2000) [FLAC-CUE][A.C.U.M.]\r\n\r\n[img]image[/img]\r\n\r\nWeakling :\r\n\r\nMisconosciuti e influentissimi, i californiani Weakling continuano, a distanza di quasi tre lustri, a far sentire tutto il peso della loro terrificante miscela black-metal. Un'intera scena (United States Black Metal) gli riconosce il ruolo di capostipiti, eppure il pathos ferale che attraversa la loro musica si è riverberato anche su altre esperienze \"metalliche\". Ripercorriamo la loro storia\r\n\r\nIl personaggio chiave della nostra storia si chiama John Gossard.\r\nCresciuto in quel di Kensington, nella Bay Area, Gossard inizia ad interessarsi di metal grazie ai dischi della sorella, appassionata, tra gli altri, di AC/DC, Black Sabbath, Led Zeppelin e Rush. Di tanto in tanto, inoltre, si diverte a strimpellare il pianoforte. Poi, in un incidente con lo skateboard si rompe la gamba e il padre, per consolarlo, gli regala una chitarra.\r\n“Uno dei ragazzi della mia strada suonava la chitarra nei Lääz Rockit [band di thrash-metal; ndr]. Non sapevo suonare niente, a quel tempo. Così, questo tizio iniziò a darmi delle ripetizioni e mi ritrovai anche ad un loro concerto. Aprivano per gli Slayer (era il periodo di “Show No Mercy”, se ricordo bene), band che mi mandò letteralmente fuori di testa!”. Dopo questa rivelazione, John inizia a maturare una passione sempre più sfrenata per le sonorità “estreme”, innamorandosi dapprima dell’hardcore (Black Flag su tutti), poi del death-metal, degli Swans e via di questo passo fino al black-metal (galeotta fu una compilation passatagli da un amico in cui comparivano anche i primi due album dei Venom). Suona, dunque, nei thrashers Vomitorium, si dà al punk...\r\n\r\nFonte: [url=http://www.ondarock.it/rockedintorni/weakling.htm]ondarock[/url]\r\n\r\nScheda tecnica :\r\n\r\nNome Gruppo : Weakling\r\n\r\nNome Mini Album : Dead As Dreams\r\n\r\nAnno : 2000\r\n\r\nGenere : Black Metal\r\n\r\nPaese : USA\r\n\r\n[code]\r\nExact Audio Copy V0.99 prebeta 5 from 4. May 2009\r\n\r\nEAC extraction logfile from 21. October 2009, 1:57\r\n\r\nWeakling / Dead As Dreams\r\n\r\nUsed drive  : MATSHITADVD-RAM UJ-841S   Adapter: 0  ID: 0\r\n\r\nRead mode               : Secure\r\nUtilize accurate stream : Yes\r\nDefeat audio cache      : Yes\r\nMake use of C2 pointers : No\r\n\r\nRead offset correction                      : 102\r\nOverread into Lead-In and Lead-Out          : No\r\nFill up missing offset samples with silence : Yes\r\nDelete leading and trailing silent blocks   : No\r\nNull samples used in CRC calculations       : Yes\r\nUsed interface                              : Installed external ASPI interface\r\n\r\nUsed output format              : User Defined Encoder\r\nSelected bitrate                : 1024 kBit/s\r\nQuality                         : High\r\nAdd ID3 tag                     : No\r\nCommand line compressor         : C:\\Program Files\\FLAC\\flac.exe\r\nAdditional command line options : -8 -T \"artist=%a\" -T \"title=%t\" -T \"album=%g\" -T \"date=%y\" -T \"tracknumber=%n\" -T \"genre=%m\" %s\r\n\r\n\r\nTOC of the extracted CD\r\n\r\n     Track |   Start  |  Length  | Start sector | End sector \r\n    ---------------------------------------------------------\r\n        1  |  0:00.00 | 10:28.10 |         0    |    47109   \r\n        2  | 10:28.10 | 20:39.15 |     47110    |   140049   \r\n        3  | 31:07.25 | 14:47.30 |    140050    |   206604   \r\n        4  | 45:54.55 | 13:09.27 |    206605    |   265806   \r\n        5  | 59:04.07 | 17:06.33 |    265807    |   342789   \r\n\r\n\r\nRange status and errors\r\n\r\nSelected range\r\n\r\n     Filename C:\\Documents and Settings\\Duck\\My Documents\\Downloads\\Weakling - Dead As Dreams.wav\r\n\r\n     Peak level 100.0 %\r\n     Range quality 99.9 %\r\n     Copy CRC FCF56A4A\r\n     Copy OK\r\n\r\nNo errors occurred\r\n\r\n \r\nAccurateRip summary\r\n \r\nTrack  1  accurately ripped (confidence 5)  [F9514DE7]\r\nTrack  2  accurately ripped (confidence 5)  [A28E8FF5]\r\nTrack  3  accurately ripped (confidence 5)  [5EE40697]\r\nTrack  4  accurately ripped (confidence 5)  [79C392A5]\r\nTrack  5  accurately ripped (confidence 5)  [C592B2F3]\r\n \r\nAll tracks accurately ripped\r\n\r\nEnd of status report\r\n[/code]\r\n\r\nInfo sito allmusic : [url]http://www.allmusic.com/album/dead-as-dreams-mw0000117078[/url]\r\n\r\nTitoli :\r\n	\r\n1 - Cut Their Grain and Place Fire Therein\r\n2 - Dead as Dreams\r\n3 - This Entire Fucking Battlefield\r\n4 - No One Can Be Called As a Man While He'll Die\r\n5 - Disasters in the Sun\r\n\r\n[img]image[/img]
Weakling - Dead As Dreams [Back].JPG 519.325 KB
Weakling - Dead As Dreams [Cover].JPG 616.9 KB
Weakling - Dead As Dreams [Inside].JPG 739.008 KB
Gathering some info...

Register and log in Isohunt and see no captcha anymore!

4000 symbols left
Hash CDB9E76729D83177F5223AB375016D3DB146250F