Marisa Monte - Memorias, Cronicas e Declaracoes de Amor [Eac Flac Cue](TntVillage)

Size 255.973 MB   14 seeders     Added 2012-06-24 09:35:36

Stream torrent
Starting‥ You need BitLord! Get it from BitLord.com
10
To download or stream you need BitLord. Visit them at BitLord.com
[CENTER][img]image[/img]

[img]image[/img]

[img]image[/img]

[img]image[/img]

[b]Artist: Marisa Monte
Title Of Album: Memórias, crônicas e declarações de amor
Etichetta: EMI
Pubblicazione: CD 2000
Genre: Pop/Rock
Playing Time: 41.27
Total Size: 243,86 MB
Quality: FLAC+Cue+Log+Info+Cover[Front + Back + CD]
Bitrate: Lossless[/b]

[img]image[/img]

[b]1 Amor I Love You (3:12)
2 Não vá embora (3:37)
3 O que me importa (3:21)
4 Não é fácil (3:05)
5 Perdão você (3:30)
6 Tema de amor (3:57)
7 Abololô (2:36:)
8 Para ver as meninas (3:52)
9 Cinco minutos (3:55)
10 Gentileza (2:47)
11 Água também é mar (2:45)
12 Gotas de luar (1:52)
13 Sou seu sabiá (2:57)[/b]

[img]image[/img]

A lot of excitement surrounded Marisa Monte's new release,"Memórias, Cronicas e Declarações de Amor", since it had been five years since her last studio album, "Rose and Charcoal" (Her most recent one, "A Great Noise", was a live collection of previous hits).

After all, Marisa Monte is one of the rare musical unanimities in Brazil. Everyone admires her work, regardless of class or education. She is as "pop" as she is "cult", and most agree that she is one of Brazil's best female voices.

Whilst listening to the CD, one notices that Marisa is gradually consolidating her own style, leaving the musical mixture of her early career well behind her.

Such consolidation no doubt benefits the singer, but it leaves to the listener a feeling of déja-vu. Many of the songs, unfortunately, sound too much alike.

The concept of the album, as its Portuguese title suggests (Memories, Chronicles and Love Stories), is love, and happiness, sadness and bliss that are an integral part of love are present on every track.

The opening song, "Amor I Love You", which is tirelessly playing on the radio here, sums up well the idea of the album. Its concept is even more evident as Arnaldo Antunes ( a frequent collaborator of Monte's) reads a passage from "The Yellow Sofa", the anti-Victorian masterpiece by 19th Century Portuguese novelist Eça de Queiroz:

"... tinha suspirado, tinha beijado o papel devotamente! Era a primeira vez que lhe escreviam aquelas sentimentalidades, e o seu orgulho dilatava-se ao calor amoroso que saía delas, como um corpo ressequido que se estira num banho tépido; sentia um acréscimo de estima por si mesma, e parecia-lhe que entrava enfim numa existência superiormente interessante, onde cada passo conduzia a um êxtase, e a alma se cobria de um luxo radioso de sensações! "

"... she had sighed, and had kissed the paper devotedly! It was the first time that such feelings had been put on paper for her, and her pride grew to the loving heat that came from those words, like a dried body that lies itself in a tepid bath; she felt a growth of esteem for herself, and it seemed to her that she had at last entered a superior, interesting existence, where each pace led to an ecstasy, as if the soul was covered by a fantastic luxury of sensations! (my translation)"

"Amor I Love You" is actually one of the album's greatest moments. Other very interesting tracks are "Para Ver As Meninas"(To See The Girls), by Paulinho da Viola "Cinco Minutos" (Five Minutes) by Jorge Benjor and "Sou Seu Sabiá" (I'm Your Hummingbird), by Caetano Veloso.

In this writer's opinion, the best track is, without a doubt the bossa-nova styled "Gotas de Luar" (Drops of Moonlight), a standard by Nelson Cavaquinho and Guilherme Brito. Its simplicity opposes to the rest of the album's sophistication.

The remaining tracks, which were mostly co-written with Carlinhos Brown, Arnaldo Antunes and Lucas Santtana are very interesting, but as I wrote earlier they are sometimes repetitive, specially "Não Vá Embora (Don't Go Away)" and "Não é Fácil (It's Not Easy)". One sometimes wonders, by their similarities, if someone has tampered with the CD-Player.

However short, the album is great listening pleasure. the co-producer, Arto Lindsay , gave a lot of importance to the instruments, which is a rare attitude in albums by vocalists.

The inlay has all the lyrics and the guitar chords, plus pictures of things of Marisa's everyday life, such as books, CDs and the like.

In Brazil, an enlarged hardcover version of the inlay was also released in bookstores. I am not aware of its release outside the country, but never mind it, unless the reader is a collector of Marisa Monte merchandise.
A good wine is an appropriate accompaniment to its listening. 

[img]image[/img]

[quote]Exact Audio Copy V1.0 beta 3 from 29. August 2011

EAC extraction logfile from 10. June 2012, 18:55

Marisa Monte / Memorias, Cronicas E Declaracoes De Amor

Used drive  : HL-DT-STDVDRAM GSA-T40N   Adapter: 0  ID: 0

Read mode               : Secure
Utilize accurate stream : Yes
Defeat audio cache      : Yes
Make use of C2 pointers : No

Read offset correction                      : 667
Overread into Lead-In and Lead-Out          : No
Fill up missing offset samples with silence : Yes
Delete leading and trailing silent blocks   : No
Null samples used in CRC calculations       : Yes
Used interface                              : Native Win32 interface for Win NT & 2000
Gap handling                                : Not detected, thus appended to previous track

Used output format              : User Defined Encoder
Selected bitrate                : 896 kBit/s
Quality                         : High
Add ID3 tag                     : No
Command line compressor         : C:\Program Files\Exact Audio Copy\FLAC\FLAC.EXE
Additional command line options : -8 -V -T "ARTIST=%artist%" -T "TITLE=%title%" -T "ALBUM=%albumtitle%" -T "DATE=%year%" -T "TRACKNUMBER=%tracknr%" -T "GENRE=%genre%" -T "COMMENT=%comment%" -T "BAND=%albuminterpret%" -T "ALBUMARTIST=%albuminterpret%" -T "COMPOSER=%composer%" %haslyrics%--tag-from-file=LYRICS="%lyricsfile%"%haslyrics% -T "DISCNUMBER=%cdnumber%" -T "TOTALDISCS=%totalcds%" -T "TOTALTRACKS=%numtracks%" %hascover%--picture="%coverfile%"%hascover% %source% -o %dest%


TOC of the extracted CD

     Track |   Start  |  Length  | Start sector | End sector 
    ---------------------------------------------------------
        1  |  0:00.00 |  3:12.12 |         0    |    14411   
        2  |  3:12.12 |  3:36.48 |     14412    |    30659   
        3  |  6:48.60 |  3:21.37 |     30660    |    45771   
        4  | 10:10.22 |  3:05.15 |     45772    |    59661   
        5  | 13:15.37 |  3:30.15 |     59662    |    75426   
        6  | 16:45.52 |  3:57.28 |     75427    |    93229   
        7  | 20:43.05 |  2:36.00 |     93230    |   104929   
        8  | 23:19.05 |  3:52.17 |    104930    |   122346   
        9  | 27:11.22 |  3:55.23 |    122347    |   139994   
       10  | 31:06.45 |  2:47.20 |    139995    |   152539   
       11  | 33:53.65 |  2:44.42 |    152540    |   164881   
       12  | 36:38.32 |  1:52.18 |    164882    |   173299   
       13  | 38:30.50 |  2:56.60 |    173300    |   186559   


Track  1

     Filename H:\MY EAC[.FLAC]\Marisa Monte - Memorias, Cronicas e Declaracoes de Amor\(1) Amor I Love You - Marisa Monte.flac

     Peak level 98.0 %
     Extraction speed 1.8 X
     Track quality 100.0 %
     Test CRC 6F996A33
     Copy CRC 6F996A33
     Cannot be verified as accurate (confidence 22)  [2675B6AC], AccurateRip returned [D11BD149]  (AR v2)
     Copy OK

Track  2

     Filename H:\MY EAC[.FLAC]\Marisa Monte - Memorias, Cronicas e Declaracoes de Amor\(2) Nao Va Embora - Marisa Monte.flac

     Peak level 98.0 %
     Extraction speed 2.3 X
     Track quality 100.0 %
     Test CRC C8ABD8D3
     Copy CRC C8ABD8D3
     Cannot be verified as accurate (confidence 20)  [A2A55F1E], AccurateRip returned [F8257287]  (AR v2)
     Copy OK

Track  3

     Filename H:\MY EAC[.FLAC]\Marisa Monte - Memorias, Cronicas e Declaracoes de Amor\(3) O Que Me Importa - Marisa Monte.flac

     Peak level 98.0 %
     Extraction speed 2.1 X
     Track quality 99.9 %
     Test CRC 3FF944D5
     Copy CRC 3FF944D5
     Cannot be verified as accurate (confidence 22)  [B2606BE0], AccurateRip returned [5412F7FA]  (AR v2)
     Copy OK

Track  4

     Filename H:\MY EAC[.FLAC]\Marisa Monte - Memorias, Cronicas e Declaracoes de Amor\(4) Nao e Facil - Marisa Monte.flac

     Peak level 98.0 %
     Extraction speed 2.5 X
     Track quality 100.0 %
     Test CRC 27E0891B
     Copy CRC 27E0891B
     Cannot be verified as accurate (confidence 22)  [B8973F9E], AccurateRip returned [49AC2203]  (AR v2)
     Copy OK

Track  5

     Filename H:\MY EAC[.FLAC]\Marisa Monte - Memorias, Cronicas e Declaracoes de Amor\(5) Perdao Voce - Marisa Monte.flac

     Peak level 98.0 %
     Extraction speed 2.8 X
     Track quality 100.0 %
     Test CRC A59DE828
     Copy CRC A59DE828
     Cannot be verified as accurate (confidence 22)  [79D13BF8], AccurateRip returned [E46486CC]  (AR v2)
     Copy OK

Track  6

     Filename H:\MY EAC[.FLAC]\Marisa Monte - Memorias, Cronicas e Declaracoes de Amor\(6) Tema De Amor - Marisa Monte.flac

     Peak level 98.0 %
     Extraction speed 2.5 X
     Track quality 99.9 %
     Test CRC 6B8F4C9C
     Copy CRC 6B8F4C9C
     Cannot be verified as accurate (confidence 9)  [FA04BDAB], AccurateRip returned [E109F009]  (AR v2)
     Copy OK

Track  7

     Filename H:\MY EAC[.FLAC]\Marisa Monte - Memorias, Cronicas e Declaracoes de Amor\(7) Abolola - Marisa Monte.flac

     Peak level 92.3 %
     Extraction speed 2.2 X
     Track quality 99.9 %
     Test CRC E18FF433
     Copy CRC E18FF433
     Cannot be verified as accurate (confidence 21)  [C81892A9], AccurateRip returned [E938E664]  (AR v2)
     Copy OK

Track  8

     Filename H:\MY EAC[.FLAC]\Marisa Monte - Memorias, Cronicas e Declaracoes de Amor\(8) Para Ver As Meninas - Marisa Monte.flac

     Peak level 98.0 %
     Extraction speed 3.1 X
     Track quality 100.0 %
     Test CRC 6D7EDECE
     Copy CRC 6D7EDECE
     Cannot be verified as accurate (confidence 22)  [7908ED8B], AccurateRip returned [8797791D]  (AR v2)
     Copy OK

Track  9

     Filename H:\MY EAC[.FLAC]\Marisa Monte - Memorias, Cronicas e Declaracoes de Amor\(9) Cinco Minutos - Marisa Monte.flac

     Peak level 98.0 %
     Extraction speed 3.2 X
     Track quality 100.0 %
     Test CRC ADEEDA45
     Copy CRC ADEEDA45
     Cannot be verified as accurate (confidence 22)  [97AD1121], AccurateRip returned [D8E70035]  (AR v2)
     Copy OK

Track 10

     Filename H:\MY EAC[.FLAC]\Marisa Monte - Memorias, Cronicas e Declaracoes de Amor\(10) Gentileza - Marisa Monte.flac

     Peak level 98.0 %
     Extraction speed 3.1 X
     Track quality 100.0 %
     Test CRC BE34EA12
     Copy CRC BE34EA12
     Cannot be verified as accurate (confidence 22)  [1867ABD6], AccurateRip returned [ACD75ABA]  (AR v2)
     Copy OK

Track 11

     Filename H:\MY EAC[.FLAC]\Marisa Monte - Memorias, Cronicas e Declaracoes de Amor\(11) Agua Tambem a Mar - Marisa Monte.flac

     Peak level 98.0 %
     Extraction speed 3.2 X
     Track quality 100.0 %
     Test CRC 9BD9537F
     Copy CRC 9BD9537F
     Cannot be verified as accurate (confidence 22)  [740420F0], AccurateRip returned [C618BDD4]  (AR v2)
     Copy OK

Track 12

     Filename H:\MY EAC[.FLAC]\Marisa Monte - Memorias, Cronicas e Declaracoes de Amor\(12) Gotas De Luar - Marisa Monte.flac

     Peak level 95.8 %
     Extraction speed 2.5 X
     Track quality 99.9 %
     Test CRC CF1329A4
     Copy CRC CF1329A4
     Cannot be verified as accurate (confidence 22)  [264348B8], AccurateRip returned [63423A26]  (AR v2)
     Copy OK

Track 13

     Filename H:\MY EAC[.FLAC]\Marisa Monte - Memorias, Cronicas e Declaracoes de Amor\(13) Sou Seu Sabia - Marisa Monte.flac

     Peak level 98.0 %
     Extraction speed 3.5 X
     Track quality 100.0 %
     Test CRC 4932402A
     Copy CRC 4932402A
     Cannot be verified as accurate (confidence 20)  [371B3A9D], AccurateRip returned [8C6E43EF]  (AR v2)
     Copy OK


No tracks could be verified as accurate
You may have a different pressing from the one(s) in the database

No errors occurred

End of status report

==== Log checksum CD05EB8AD48E370977348780F5F53BFA4305374FD622FEE4A3DABAD3914513E1 ====[/quote]

[img]image[/img]

[img]image[/img][/CENTER]
Folder/Marisa Monte - Memorias, Cronicas E Declaraçoes De Amor - Back.jpg 81.314 KB
Folder/Marisa Monte - Memorias, Cronicas E Declaraçoes De Amor - Front.jpg 68.063 KB
Folder/Marisa Monte - Memories, Chronicles And Declarations Of Love - CD.gif 91.936 KB
Gathering some info...

Register and log in Isohunt and see no captcha anymore!

4000 symbols left
Hash CB9C9BF90EE0E3A72D4834E806FA8072DA0B8D73

Related torrents for "Marisa Monte - Memorias, Cronicas e Declaracoes de Amor [Eac Flac Cue](TntVillage)"

Torrent search:

lossless lossless