The Five Year Engagement (2012 )

Size 734.671 MB   0 seeders     Added 2012-06-25 18:21:24

To download or stream you need BitLord. Visit them at BitLord.com
image

The Five Year Engagement.2012.CAM XVID-WBZ

http://www.imdb.com/rg/mediasingle/assoc-title/title/tt1195478/


Plot:
Determined to make her own path in life, Princess Merida defies a custom that brings chaos to
her kingdom. Granted one wish, Merida must rely on her bravery and her archery skills to undo
a beastly curse.


Sources - VIDEO: Chinese RMVB ....Thanks
         AUDIO: Chinese RMVB ....Thanks



Format                                   : AVI
Format/Info                              : Audio Video Interleave
File size                                : 612 MiB
Duration                                 : 1h 19mn
Overall bit rate                         : 1 073 Kbps
Writing library                          : VirtualDub build 32839/release

Video
ID                                       : 0
Format                                   : MPEG-4 Visual
Format profile                           : Advanced Simple@L5
Format settings, BVOP                    : 2
Format settings, QPel                    : Yes
Format settings, GMC                     : 3 warppoints
Format settings, Matrix                  : Default (H.263)
Muxing mode                              : Packed bitstream
Codec ID                                 : XVID
Codec ID/Hint                            : XviD
Duration                                 : 1h 19mn
Bit rate                                 : 933 Kbps
Width                                    : 720 pixels
Height                                   : 372 pixels
Display aspect ratio                     : 1.935
Frame rate                               : 29.970 fps
Color space                              : YUV
Chroma subsampling                       : 4:2:0
Bit depth                                : 8 bits
Scan type                                : Progressive
Compression mode                         : Lossy
Bits/(Pixel*Frame)                       : 0.116
Stream size                              : 533 MiB (87%)
Writing library                          : XviD 1.2.1 (UTC 2008-12-04)

Audio
ID                                       : 1
Format                                   : MPEG Audio
Format version                           : Version 1
Format profile                           : Layer 3
Mode                                     : Joint stereo
Mode extension                           : MS Stereo
Codec ID                                 : 55
Codec ID/Hint                            : MP3
Duration                                 : 1h 19mn
Bit rate mode                            : Constant
Bit rate                                 : 128 Kbps
Channel(s)                               : 2 channels
Sampling rate                            : 44.1 KHz
Compression mode                         : Lossy
Delay relative to video                  : 6ms
Stream size                              : 73.1 MiB (12%)
Alignment                                : Split accross interleaves
Interleave, duration                     : 33 ms (1.00 video frame)
Interleave, preload duration             : 500 ms

image
The Five Year Engagement (2012 )/TFYE (2012 ).rar 734.003 MB
The Five Year Engagement (2012 )/info.nfo 667.344 KB
Gathering some info...

Register and log in Isohunt and see no captcha anymore!

4000 symbols left
Hash 9a2063b9eec286b3c4c776a418ae794dfc1f4956