imdb
rating

6.7
Ice Age: Continental Drift

Ice Age: Continental Drift (2012)

Adventure, Animation, Comedy, Family

Full description
quality   dvdrip x264 hd bd screener dvd

Ice Age Continental Drift (2012) DvDrip-FxM

Size 987.613 MB   0 seeders     Added 2012-06-26 21:51:13

Stream torrent
Starting‥ You need BitLord! Get it from BitLord.com
To download or stream you need BitLord. Visit them at BitLord.com
Ice Age: Continental Drift (2012)

Format                           : AVI
Format/Info                      : Audio Video Interleave
Format profile                   : OpenDML
File size                        : 941 MiB
Duration                         : 1h 49mn
Overall bit rate                 : 1 714 Kbps
Writing application              : VirtualDubMod 1.5.10.2 (build 2542/release)
Writing library                  : VirtualDubMod build 2542/release
Original source form             : MAX TORRENTZ

Video
ID                               : 0
Format                           : MPEG-4 Visual
Format profile                   : AdvancedSimple@L5
Format settings, BVOP            : Yes
Format settings, QPel            : No
Format settings, GMC             : No warppoints
Format settings, Matrix          : Default (H.263)
Codec ID                         : XVID
Codec ID/Hint                    : XviD
Duration                         : 1h 49mn
Bit rate                         : 1 325 Kbps
Width                            : 640 pixels
Height                           : 272 pixels
Display aspect ratio             : 2.35:1
Frame rate                       : 23.976 fps
Resolution                       : 24 bits
Colorimetry                      : 4:2:0
Scan type                        : Progressive
Bits/(Pixel*Frame)               : 0.318
Stream size                      : 941 MiB (77%)
Writing library                  : XviD 61

Audio
ID                               : 1
Format                           : AC-3
Format/Info                      : Audio Coding 3
Codec ID                         : 2000
Duration                         : 1h 49mn
Bit rate mode                    : Constant
Bit rate                         : 384 Kbps
Channel(s)                       : 6 channels
Channel positions                : Front: L C R, Surround: L R, LFE
Sampling rate                    : 48.0 KHz
Stream size                      : 147 MiB (22%)
Alignment                        : Aligned on interleaves
Interleave, duration             : 64 ms (1.54 video frames)
Interleave, preload duration     : 192 ms


http://www.imdb.com/title/tt1667889/


Source: DVD (perfect a/v/sync quality+filtered audio with additional 400% volume , 

sample is included)

How To Get Your Maxspeed (uTorrent)

Torrent Client - Preferences - Bandwidth - Number of connections - Set aprox. 500 

for each 
Torrent Client - Preferences - BiTorrent - Protocol Encryption - Forced
Bandwidth Allocation - High (Set download/upload limit - Unlimited)
Stop Other Active Torrents - Start downloading and wait for connections.
Enjoy and Seed for at least 1:1 ratio. Don't forget to say thanks/leave reviews.
Before downloading you should check/google search sample "release name""sample".
Greets to all actual/future p2p/scene QUALITY groups and affiliate websites.
Don't trust IMDb robot or bad ratings,always watch some trailers first.
Ignore stupid comments/fake/mislabeled/no-DVDrips/CAM/TS/RAR uploads.
Please spread this release/torrent to your friends/forums/etc.
If you need translation subs visit some subtitles sites.
Report if you see online streaming or other spam links.
Recommended movie player VLC PLAYER.

Ice Age Continental Drift (2012) DvDrip-FxM/Ice Age Continental Drift (2012) DvDrip-FxM.avi 987.608 MB
Ice Age Continental Drift (2012) DvDrip-FxM/Torrent downloaded from Demoniod.me.txt 42 B
Ice Age Continental Drift (2012) DvDrip-FxM/Torrent downloaded from Extratorrent.com.txt 43 B
Gathering some info...

Register and log in Isohunt and see no captcha anymore!

4000 symbols left
Hash e6919147eb912e8b97947863d8db81909a22d161

Related torrents for "Ice Age Continental Drift (2012) DvDrip-FxM"

Torrent search:

dvdrip 2012